<?xml version="1.0" standalone="no"?>
<!DOCTYPE svg PUBLIC "-//W3C//DTD SVG 1.1//EN" "http://www.w3.org/Graphics/SVG/1.1/DTD/svg11.dtd" >
<svg>
<metadata>
Created by FontForge 20120731 at Thu Dec 24 02:27:43 2015
 By root
Generated by Fontographer 4.1
</metadata>
<defs>
<font id="Wnazanin" horiz-adv-x="0" >
  <font-face 
    font-family="W_nazanin"
    font-weight="400"
    font-stretch="normal"
    units-per-em="1100"
    panose-1="0 0 4 0 0 0 0 0 0 0"
    ascent="880"
    descent="-220"
    bbox="-231 -661 1239 1237"
    underline-thickness="20"
    underline-position="-123"
    unicode-range="U+0020-FE87"
  />
<missing-glyph horiz-adv-x="550" 
d="M69 0v700h412v-700h-412zM138 69h275v562h-275v-562z" />
    <glyph glyph-name="uniFE50" unicode="&#xfe5b;&#xfe00;" horiz-adv-x="619" 
d="M613 625q3 -11 5 -19q-2 -2 -12 -2h-24q0 -98 -22 -201q-29 -135 -80 -204q26 -54 26 -100q0 -29 -12 -60q-14 -39 -37 -45q-94 -23 -227 -16l26 88q115 53 166 123q-115 158 -264 308l-15 -25q-82 87 -82 109q0 18 15 82q3 15 8 15q3 0 24 -19q113 -102 201 -212
q94 -117 146 -210q43 74 53 203q9 121 0 238l67 61zM464 79q0 7 1 12q0 33 -23 64q-47 -55 -97 -90q79 -5 119 14z" />
    <glyph glyph-name="uniFE51" unicode="&#xfe5a;&#xfe00;" horiz-adv-x="733" 
d="M748 0h-47q-147 0 -147 208q0 40 2 73q-90 -223 -229 -323q-98 -19 -209 -23q-26 -1 -26 4q0 4 33 20l135 65q90 50 156 118q-30 116 -107 211q-46 58 -149 142l-9 -32q-37 32 -55 50q-37 38 -39 54q0 22 8 80q2 12 5 12q7 0 18 -10q155 -109 232 -205q91 -111 127 -270
q42 56 71 127q31 78 30 143q-2 97 -16 239l68 57q8 -62 14 -541q1 -107 94 -107h40v-92z" />
    <glyph glyph-name="uniFE52" unicode="&#xfe5b;&#xfe01;" horiz-adv-x="619" 
d="M613 625q3 -11 5 -19q-2 -2 -12 -2h-24q0 -98 -22 -201q-29 -135 -80 -204q26 -54 26 -100q0 -29 -12 -60q-14 -39 -37 -45q-94 -23 -227 -16l26 88q115 53 166 123q-115 158 -264 308l-15 -25q-82 87 -82 109q0 18 15 82q3 15 8 15q3 0 24 -19q113 -102 201 -212
q94 -117 146 -210q43 74 53 203q9 121 0 238l67 61zM464 79q0 7 1 12q0 33 -23 64q-47 -55 -97 -90q79 -5 119 14zM262 813q-52 -42 -128 -42q-11 0 -33.5 3.5t-33.5 3.5q-9 0 -21.5 -17t-19.5 -18q-9 0 -9 15q0 13 13 38q13 35 25 35q16 0 46.5 -5t45.5 -5q68 0 102 8
q15 6 24 6q4 0 5 -2q0 -4 -16 -20z" />
    <glyph glyph-name="exclamdown" unicode="&#xfe5a;&#xfe01;" horiz-adv-x="733" 
d="M748 0h-47q-147 0 -147 208q0 40 2 73q-90 -223 -229 -323q-98 -19 -209 -23q-26 -1 -26 4q0 4 33 20l135 65q90 50 156 118q-30 116 -107 211q-46 58 -149 142l-9 -32q-37 32 -55 50q-37 38 -39 54q0 22 8 80q2 12 5 12q7 0 18 -10q155 -109 232 -205q91 -111 127 -270
q42 56 71 127q31 78 30 143q-2 97 -16 239l68 57q8 -62 14 -541q1 -107 94 -107h40v-92zM262 813q-52 -42 -128 -42q-11 0 -33.5 3.5t-33.5 3.5q-9 0 -21.5 -17t-19.5 -18q-9 0 -9 15q0 13 13 38q13 35 25 35q16 0 46.5 -5t45.5 -5q68 0 102 8q15 6 24 6q4 0 5 -2
q0 -4 -16 -20z" />
    <glyph glyph-name="cent" unicode="&#xfe5b;&#xfe03;" horiz-adv-x="619" 
d="M613 625q3 -11 5 -19q-2 -2 -12 -2h-24q0 -98 -22 -201q-29 -135 -80 -204q26 -54 26 -100q0 -29 -12 -60q-14 -39 -37 -45q-94 -23 -227 -16l26 88q115 53 166 123q-115 158 -264 308l-15 -25q-82 87 -82 109q0 18 15 82q3 15 8 15q3 0 24 -19q113 -102 201 -212
q94 -117 146 -210q43 74 53 203q9 121 0 238l67 61zM464 79q0 7 1 12q0 33 -23 64q-47 -55 -97 -90q79 -5 119 14zM238 824l-9 -40q-86 -16 -178 -49v28q24 14 51 30q-49 31 -49 58q0 23 34.5 63.5t66.5 40.5q41 0 61 -40q6 -10 1 -17q-2 -2 -6 -2q-3 0 -11 2q-18 7 -52 7
q-16 0 -30 -10q-17 -9 -17 -18q0 -24 32 -40q26 -13 52 -13q20 0 44 9h11q0 -4 -1 -9z" />
    <glyph glyph-name="sterling" unicode="&#xfe5a;&#xfe03;" horiz-adv-x="733" 
d="M748 0h-47q-147 0 -147 208q0 40 2 73q-90 -223 -229 -323q-98 -19 -209 -23q-26 -1 -26 4q0 4 33 20l135 65q90 50 156 118q-30 116 -107 211q-46 58 -149 142l-9 -32q-37 32 -55 50q-37 38 -39 54q0 22 8 80q2 12 5 12q7 0 18 -10q155 -109 232 -205q91 -111 127 -270
q42 56 71 127q31 78 30 143q-2 97 -16 239l68 57q8 -62 14 -541q1 -107 94 -107h40v-92zM238 802l-9 -40q-86 -16 -178 -49v28q24 14 51 30q-49 31 -49 58q0 23 34.5 63.5t66.5 40.5q41 0 61 -40q6 -10 1 -17q-2 -2 -6 -2q-3 0 -11 2q-18 7 -52 7q-16 0 -30 -10
q-17 -9 -17 -18q0 -24 32 -40q26 -13 52 -13q20 0 44 9h11q0 -4 -1 -9z" />
    <glyph glyph-name="currency" unicode="&#xfe5b;&#xfe05;" horiz-adv-x="619" 
d="M613 625q3 -11 5 -19q-2 -2 -12 -2h-24q0 -98 -22 -201q-29 -135 -80 -204q26 -54 26 -100q0 -29 -12 -60q-14 -39 -37 -45q-94 -23 -227 -16l26 88q115 53 166 123q-115 158 -264 308l-15 -25q-82 87 -82 109q0 18 15 82q3 15 8 15q3 0 24 -19q113 -102 201 -212
q94 -117 146 -210q43 74 53 203q9 121 0 238l67 61zM464 79q0 7 1 12q0 33 -23 64q-47 -55 -97 -90q79 -5 119 14zM385 -210l-9 -40q-86 -16 -178 -49v28q24 14 52 30q-50 31 -50 58q0 23 34.5 63.5t66.5 40.5q42 0 61 -40q7 -10 1 -17q-2 -2 -5 -2q-4 0 -11 2q-19 7 -52 7
q-16 0 -31.5 -9.5t-15.5 -18.5q0 -24 31 -40q26 -13 52 -13q21 0 44 9h11q0 -4 -1 -9z" />
    <glyph glyph-name="yen" unicode="&#xfe5a;&#xfe05;" horiz-adv-x="733" 
d="M748 0h-47q-147 0 -147 208q0 40 2 73q-90 -223 -229 -323q-98 -19 -209 -23q-26 -1 -26 4q0 4 33 20l135 65q90 50 156 118q-30 116 -107 211q-46 58 -149 142l-9 -32q-37 32 -55 50q-37 38 -39 54q0 22 8 80q2 12 5 12q7 0 18 -10q155 -109 232 -205q91 -111 127 -270
q42 56 71 127q31 78 30 143q-2 97 -16 239l68 57q8 -62 14 -541q1 -107 94 -107h40v-92zM275 -243l-9 -40q-86 -16 -178 -49v28q24 14 52 30q-50 31 -50 58q0 23 34.5 63.5t66.5 40.5q42 0 61 -40q7 -10 1 -17q-2 -2 -5 -2q-4 0 -11 2q-19 7 -52 7q-16 0 -31.5 -9.5
t-15.5 -18.5q0 -24 31 -40q26 -13 52 -13q21 0 44 9h11q0 -4 -1 -9z" />
    <glyph glyph-name="Egrave" unicode="&#xfe5b;&#xfe5a;&#xfe64;" horiz-adv-x="886" arabic-form="isolated" 
d="M614 750q0 -58 -25 -58q3 56 -16 93q13 25 33 27q8 -31 8 -62zM695 634q0 -24 -15 -42.5t-39 -18.5q-28 0 -40 25q-25 -45 -55 -45q-21 0 -33 18q-10 14 -10 30q0 20 10 34q7 15 18 17q6 0 6 -8v-11q0 -8 -2 -10q0 -21 21 -21q22 0 28 20q2 5 9 34q1 10 13 12q4 0 7 -9
q3 -43 28 -44q23 -1 23 24q0 14 -5 22l26 22q10 -20 10 -49zM883 176q0 -175 -123 -176q-119 -1 -154 113q-37 -113 -132 -113h-10q-113 0 -133 132q-51 -59 -59 -59h-27q-57 0 -93 15q-47 20 -47 48q0 71 39 120q29 37 168 92l2 55l55 60q6 -42 6 -118q-1 -86 2 -119
q8 -80 28.5 -107t62.5 -27h7q47 0 73 29t26 75v126q0 91 -6 159l67 57v-287q0 -64 28 -108q33 -51 94 -51q67 0 68 71q1 76 -48 342l63 60q43 -236 43 -389zM327 162l-11 125q-80 -25 -117 -48q-44 -21 -44 -39q0 -21 53 -33q37 -9 69 -9q34 0 50 4z" />
    <glyph glyph-name="agrave" unicode="&#x651;&#x64e;" arabic-form="isolated" 
d="M213 894q1 -32 -17 -53q-19 -24 -51 -24q-31 0 -50 32q-29 -34 -67 -34q-24 0 -40 20.5t-16 44.5q0 18 10 39q11 26 26 26q7 0 7 -13q0 -6 -0.5 -13t-2.5 -17q0 -28 28 -28q25 0 36 20q2 9 9 41q3 11 13 11t11 -13q5 -62 36 -63q29 -1 29 30q0 11 -6 30l32 25
q12 -20 13 -61zM189 1081l-187 -75v48l187 74v-47z" />
    <glyph glyph-name="acircumflex" unicode="&#x651;&#x650;" arabic-form="isolated" 
d="M213 1052q1 -31 -18 -54t-50 -23q-30 0 -50 32q-27 -33 -67 -33q-25 0 -40.5 19.5t-15.5 45.5q0 18 9 38q11 24 27 24q7 0 7 -11q0 -6 -0.5 -13t-2.5 -18q0 -27 28 -27q24 0 36 20q2 8 9 39q3 14 13 14t11 -14q5 -62 36 -62q29 0 29 29q0 8 -6 30l32 25q12 -20 13 -61z
M185 891l-187 -77v50l187 73v-46z" />
    <glyph glyph-name="adieresis" unicode="&#x651;&#x64f;" arabic-form="isolated" 
d="M213 894q1 -32 -17 -53q-19 -24 -51 -24q-31 0 -50 32q-29 -34 -67 -34q-24 0 -40 20.5t-16 44.5q0 18 10 39q11 26 26 26q7 0 7 -13q0 -6 -0.5 -13t-2.5 -17q0 -28 28 -28q25 0 36 20q2 9 9 41q3 11 13 11t11 -13q5 -62 36 -63q29 -1 29 30q0 11 -6 30l32 25
q12 -20 13 -61zM210 1138q1 -24 -41 -71q2 -1 26 -10l-21 -36q-28 3 -49 19q-72 -40 -116 -40q-19 0 -35 42q57 0 70 4q35 2 55 19q-20 35 -20 47q0 22 31.5 50.5t53.5 28.5q20 0 32.5 -16t13.5 -37zM166 1132q0 18 -20 18q-8 0 -17 -8.5t-9 -17.5q0 -21 22 -37q21 13 24 45
z" />
    <glyph glyph-name="ae" unicode="&#x651;&#x64b;" arabic-form="isolated" 
d="M195 1076l-187 -76v48l187 74v-46zM213 894q1 -32 -17 -53q-19 -24 -51 -24q-31 0 -50 32q-29 -34 -67 -34q-24 0 -40 20.5t-16 44.5q0 18 10 39q11 26 26 26q7 0 7 -13q0 -6 -0.5 -13t-2.5 -17q0 -28 28 -28q25 0 36 20q2 9 9 41q3 11 13 11t11 -13q5 -62 36 -63
q29 -1 29 30q0 11 -6 30l32 25q12 -20 13 -61zM195 1190l-187 -76v49l187 74v-47z" />
    <glyph glyph-name="egrave" unicode="&#x651;&#x64d;" arabic-form="isolated" 
d="M174 891l-188 -77v50l188 73v-46zM213 1166q1 -31 -18 -54t-50 -23t-50 33q-28 -34 -67 -34q-26 0 -43 24q-13 17 -13 40q0 18 9 38q11 26 27 26q7 0 7 -10q0 -7 -0.5 -14.5t-2.5 -17.5q0 -28 28 -28q25 0 36 20q1 8 9 41q2 11 13 11q10 0 11 -12q5 -63 36 -64
q29 -1 29 31q0 8 -6 28l32 26q12 -19 13 -61zM174 1006l-188 -77v49l188 73v-45z" />
    <glyph glyph-name="ecircumflex" unicode="&#x651;&#x64c;" arabic-form="final" 
d="M213 894q1 -32 -17 -53q-19 -24 -51 -24q-31 0 -50 32q-29 -34 -67 -34q-24 0 -40 20.5t-16 44.5q0 18 10 39q11 26 26 26q7 0 7 -13q0 -6 -0.5 -13t-2.5 -17q0 -28 28 -28q25 0 36 20q2 9 9 41q3 11 13 11t11 -13q5 -62 36 -63q29 -1 29 30q0 11 -6 30l32 25
q12 -20 13 -61zM212 1132q0 -25 -38 -70q3 -3 25 -10l-22 -38q-23 5 -48 19q-67 -37 -118 -37q-16 0 -35 40q26 0 34 3q12 14 14 29q0 12 -10 16q-16 6 -36 -16l-6 31q21 24 46 25q7 1 16 -5q19 -7 22 -36q0 -21 -13 -42q39 3 59 17q-19 32 -19 49q0 22 31.5 49t53.5 30
q22 0 36 -20q8 -13 8 -34zM169 1125q1 18 -18 18q-12 0 -19.5 -7.5t-7.5 -17.5q0 -19 21 -37q23 14 24 44z" />
    <glyph glyph-name="Oacute" unicode="&#xfe71;" arabic-form="medial" 
d="M272 634l-187 -77v50l187 73v-46z" />
    <glyph glyph-name="Otilde" unicode="&#xfe72;" arabic-form="isolated" 
d="M272 -160l-187 -76v48l187 75v-47z" />
    <glyph glyph-name="Ugrave" unicode="&#xfe74;" arabic-form="isolated" 
d="M272 634l-187 -77v50l187 73v-46zM272 749l-187 -77v49l187 73v-45z" />
    <glyph glyph-name="Yacute" unicode="&#xfe76;" arabic-form="isolated" 
d="M289 696q0 -24 -38 -72q3 -2 25 -9l-22 -36q-24 3 -48 19q-68 -40 -118 -40q-16 0 -35 41q26 0 34 3q13 15 14 31q0 10 -10 14q-17 5 -36 -14l-5 30q19 24 45 25q33 2 38 -42q0 -22 -13 -42q39 4 59 18q-19 32 -19 48q0 29 37 55q32 24 48 24q44 0 44 -53zM246 689
q1 18 -18 18q-12 0 -19.5 -8.5t-7.5 -17.5q0 -17 21 -38q23 17 24 46z" />
    <glyph glyph-name="germandbls" unicode="&#xfe77;" arabic-form="medial" 
d="M290 637q1 -32 -17 -53q-19 -24 -51 -24q-31 0 -50 32q-29 -34 -67 -34q-24 0 -39.5 20.5t-15.5 44.5q0 18 9 39q11 26 26 26q7 0 7 -13q0 -6 -0.5 -13t-2.5 -17q0 -28 28 -28q25 0 36 20q2 9 9 41q3 11 13 11t11 -13q5 -62 36 -63q29 -1 29 30q0 11 -6 30l32 25
q12 -20 13 -61z" />
    <glyph glyph-name="aacute" unicode="&#xfe79;" arabic-form="medial" 
d="M290 637q1 -32 -17 -53q-19 -24 -51 -24q-31 0 -50 32q-29 -34 -67 -34q-24 0 -39.5 20.5t-15.5 44.5q0 18 9 39q11 26 26 26q7 0 7 -13q0 -6 -0.5 -13t-2.5 -17q0 -28 28 -28q25 0 36 20q2 9 9 41q3 11 13 11t11 -13q5 -62 36 -63q29 -1 29 30q0 11 -6 30l32 25
q12 -20 13 -61zM266 824l-187 -75v48l187 74v-47z" />
    <glyph glyph-name="atilde" unicode="&#xfe7b;" arabic-form="medial" 
d="M290 795q1 -31 -18 -54t-50 -23q-30 0 -50 32q-27 -33 -67 -33q-25 0 -40 19.5t-15 45.5q0 18 8 38q11 24 27 24q7 0 7 -11q0 -6 -0.5 -13t-2.5 -18q0 -27 28 -27q24 0 36 20q2 8 9 39q3 14 13 14t11 -14q5 -62 36 -62q29 0 29 29q0 8 -6 30l32 25q12 -20 13 -61z
M262 634l-187 -77v50l187 73v-46z" />
    <glyph glyph-name="aring" unicode="&#xfe7d;" arabic-form="medial" 
d="M290 637q1 -32 -17 -53q-19 -24 -51 -24q-31 0 -50 32q-29 -34 -67 -34q-24 0 -39.5 20.5t-15.5 44.5q0 18 9 39q11 26 26 26q7 0 7 -13q0 -6 -0.5 -13t-2.5 -17q0 -28 28 -28q25 0 36 20q2 9 9 41q3 11 13 11t11 -13q5 -62 36 -63q29 -1 29 30q0 11 -6 30l32 25
q12 -20 13 -61zM287 881q1 -24 -41 -71q2 -1 26 -10l-21 -36q-28 3 -49 19q-72 -40 -116 -40q-19 0 -35 42q57 0 70 4q35 2 55 19q-20 35 -20 47q0 22 31.5 50.5t53.5 28.5q20 0 32.5 -16t13.5 -37zM243 875q0 18 -20 18q-8 0 -17 -8.5t-9 -17.5q0 -21 22 -37q21 13 24 45z
" />
    <glyph glyph-name="ccedilla" unicode="&#xfe7f;" arabic-form="medial" 
d="M272 819l-187 -76v48l187 74v-46zM290 637q1 -32 -17 -53q-19 -24 -51 -24q-31 0 -50 32q-29 -34 -67 -34q-24 0 -39.5 20.5t-15.5 44.5q0 18 9 39q11 26 26 26q7 0 7 -13q0 -6 -0.5 -13t-2.5 -17q0 -28 28 -28q25 0 36 20q2 9 9 41q3 11 13 11t11 -13q5 -62 36 -63
q29 -1 29 30q0 11 -6 30l32 25q12 -20 13 -61zM272 933l-187 -76v49l187 74v-47z" />
    <glyph glyph-name="eacute" unicode="&#x622;" arabic-form="isolated" 
d="M251 634l-188 -77v50l188 73v-46zM290 909q1 -31 -18 -54t-50 -23t-50 33q-28 -34 -67 -34q-26 0 -43 24q-12 17 -12 40q0 18 8 38q11 26 27 26q7 0 7 -10q0 -7 -0.5 -14.5t-2.5 -17.5q0 -28 28 -28q25 0 36 20q1 8 9 41q2 11 13 11q10 0 11 -12q5 -63 36 -64
q29 -1 29 31q0 8 -6 28l32 26q12 -19 13 -61zM251 749l-188 -77v49l188 73v-45z" />
    <glyph glyph-name="edieresis" unicode="&#x623;" arabic-form="isolated" 
d="M290 637q1 -32 -17 -53q-19 -24 -51 -24q-31 0 -50 32q-29 -34 -67 -34q-24 0 -39.5 20.5t-15.5 44.5q0 18 9 39q11 26 26 26q7 0 7 -13q0 -6 -0.5 -13t-2.5 -17q0 -28 28 -28q25 0 36 20q2 9 9 41q3 11 13 11t11 -13q5 -62 36 -63q29 -1 29 30q0 11 -6 30l32 25
q12 -20 13 -61zM289 875q0 -25 -38 -70q3 -3 25 -10l-22 -38q-23 5 -48 19q-67 -37 -118 -37q-16 0 -35 40q26 0 34 3q12 14 14 29q0 12 -10 16q-16 6 -36 -16l-5 31q20 24 45 25q7 1 16 -5q19 -7 22 -36q0 -21 -13 -42q39 3 59 17q-19 32 -19 49q0 22 31.5 49t53.5 30
q22 0 36 -20q8 -13 8 -34zM246 868q1 18 -18 18q-12 0 -19.5 -7.5t-7.5 -17.5q0 -19 21 -37q23 14 24 44z" />
    <glyph glyph-name="iacute" unicode="&#x623;" arabic-form="final" 
d="M297 628q-52 -44 -126 -44q-10 0 -42 3q-12 2 -26 3q-9 0 -20.5 -17t-20.5 -17q-10 0 -10 14t14.5 43t25.5 30q15 0 45 -5t47 -5q66 0 101 9q14 5 23 5q6 0 6 -2q0 -3 -17 -17z" />
    <glyph glyph-name="idieresis" unicode="&#x624;" arabic-form="isolated" 
d="M249 636q1 -76 -78 -76q-68 0 -68 57q0 24 20 71q21 51 41 53q41 0 64 -33q20 -29 21 -72zM228 630q0 50 -64 51q-7 1 -18 -22q-8 -17 -8 -29q0 -10 13 -17q8 -6 25 -6q52 0 52 23z" />
    <glyph glyph-name="ntilde" unicode="&#x624;" arabic-form="final" 
d="M279 646l-9 -38q-86 -16 -178 -50v29q14 8 52 28q-50 35 -50 59q-1 21 33 61q36 44 68 44q41 0 61 -39q7 -13 1 -18q-3 -6 -17 -1q-21 8 -51 9q-12 0 -33 -11q-16 -9 -16 -19q0 -22 32 -38q27 -15 51 -15q20 0 47 8q3 1 11 1q0 -4 -2 -10z" />
    <glyph glyph-name="oacute" unicode="&#x625;" arabic-form="isolated" 
d="M194 631q0 -71 -26 -71q0 31 -12 99q-6 49 -9 50q0 14 42 34q5 -16 5 -112z" />
    <glyph glyph-name=".notdef" horiz-adv-x="550" 
d="M69 0v700h412v-700h-412zM138 69h275v562h-275v-562z" />
    <glyph glyph-name=".null" 
 />
    <glyph glyph-name="nonmarkingreturn" horiz-adv-x="189" 
 />
    <glyph glyph-name="space" unicode=" " horiz-adv-x="189" 
 />
    <glyph glyph-name="glyph4" horiz-adv-x="1012" 
d="M859 465l-65 -65q-3 -2 -6 -2t-5 2l-65 65q-6 6 0 11l65 65q2 4 5 4t6 -4l65 -65q6 -5 0 -11zM859 341q6 -7 0 -13l-65 -59q-6 -5 -11 0l-64 59q-7 6 -1 13l64 71q6 6 12 0zM861 202q-29 -90 -130 -135v-60q0 -8 -8 -8h-48q-22 0 -41 21q-15 15 -42 41q-45 -40 -124 -49
q-25 -3 -51 -9q-22 -4 -23 -4q-8 0 -8 8v93q0 17 15 17q1 0 3 -5t15 -5q11 0 35 4q55 7 79 28q-48 67 -56 135q0 5 5 8q11 9 34 27q12 10 35 30q4 6 9 4t5 -9q0 -94 79 -188q5 3 5 34v226q0 2 3 5l66 65q4 5 9 3q4 -1 4 -8v-291q0 -27 12 -34h39q3 0 3 1t-14 16
q-24 24 -50 33q-10 5 -2 14l63 71q4 5 10 1q28 -14 68 -73q2 -5 1 -7zM470 103q0 -8 -8 -8q-76 -10 -76 5v371q0 2 3 5l67 65q5 6 9 4q5 -2 5 -9v-433zM293 401l-65 -72q-4 -3 -6 -3q-3 0 -7 3l-65 72q-3 5 2 10l66 65q2 8 11 0l65 -65q7 -6 -1 -10zM403 73q0 -3 -1 -4
q-33 -42 -69 -68q-2 -4 -9 1q-154 145 -175 271q0 4 5 9q8 9 28 27q11 10 36 30q4 6 9 4q4 -2 4 -9q0 -94 78 -188q6 3 11 34v226q0 1 4 5l65 65q5 5 10 3q4 -1 4 -8v-398zM842 471l-54 55l-54 -55l54 -53zM842 336l-54 58l-54 -58l54 -50zM844 202q-34 51 -54 62l-54 -57
q22 -10 46 -34q16 -16 16 -29q0 -14 -16 -14h-42h-2q-24 13 -24 50v272l-48 -50v-222q0 -50 -27 -50q-4 0 -5 3q-79 94 -85 185q-12 -9 -22.5 -19.5t-33.5 -27.5q12 -67 58 -128q5 -5 -1 -10q-28 -29 -94 -38q-37 -5 -53 -2v-76q29 6 63 10q78 10 121 51q5 6 10 0l48 -47
q15 -15 30 -15h39v57q0 6 5 7q96 40 125 122zM453 110v407l-50 -50v-354q0 -12 50 -3zM277 405l-56 55l-52 -55l52 -58zM386 75v377l-48 -50l-1 -223q-10 -49 -33 -49q-5 0 -5 3q-77 92 -84 185q-16 -18 -50 -48q21 -116 165 -253q24 20 56 58z" />
    <glyph glyph-name="exclam" unicode="&#x660;" horiz-adv-x="540" 
d="M354 276l-95 -99l-101 99l101 97z" />
    <glyph glyph-name="quotedbl" unicode="&#x661;" horiz-adv-x="540" 
d="M358 139q0 -155 -36 -157q-16 0 -16.5 32.5t-2.5 96.5q-6 86 -27 164q-45 167 -122 279l57 91q66 -95 108 -243q39 -140 39 -263z" />
    <glyph glyph-name="numbersign" unicode="&#x662;" horiz-adv-x="540" 
d="M452 623q0 -83 -46.5 -134.5t-128.5 -52.5q-19 -1 -56 5q28 -52 52 -151q27 -111 27 -190q0 -118 -32 -118q-12 0 -16 37q-11 107 -13 110q-12 91 -45 181q-48 128 -127 243l53 88q39 -56 60 -74q42 -36 91 -36q104 0 145 94q10 24 23 25q13 0 13 -27z" />
    <glyph glyph-name="dollar" unicode="&#x663;" horiz-adv-x="540" 
d="M492 618q0 -169 -106 -170q-21 -1 -46 16t-30 29q-10 -25 -34.5 -40.5t-57.5 -15.5q-13 0 -30 3q25 -44 47 -130q27 -104 28 -190q1 -78 -1 -94q-6 -45 -27 -45q-12 0 -22 81q-32 284 -182 485l53 93q25 -36 52 -76q33 -34 77 -34q39 0 58 32q10 19 22 62q6 23 18 23
q14 0 18 -32q9 -75 65 -75q33 0 47 29q5 10 16 53q6 26 22 26q13 0 13 -30z" />
    <glyph glyph-name="percent" unicode="&#x6f4;" horiz-adv-x="540" 
d="M479 473q0 -39 -55 -68q-46 -24 -88 -24q-67 0 -108 26q29 -45 47 -139q15 -81 15 -148q0 -75 -1 -94q-2 -45 -25 -45q-11 0 -20 81q-33 289 -185 485l53 93q34 -48 90 -116q2 62 41.5 102t101.5 41q29 0 60 -16.5t42 -41.5q3 -5 -2 -9t-14 -3q-28 9 -78 9q-48 0 -69 -27
q-15 -20 -19 -51q0 -8 2 -11q6 -26 37 -42q25 -12 56 -13q52 -2 87 19q12 7 21 7q11 0 11 -15z" />
    <glyph glyph-name="ampersand" unicode="&#x664;" horiz-adv-x="540" 
d="M479 473q0 -39 -55 -68q-46 -24 -88 -24q-67 0 -108 26q29 -45 47 -139q15 -81 15 -148q0 -75 -1 -94q-2 -45 -25 -45q-11 0 -20 81q-33 289 -185 485l53 93q34 -48 90 -116q2 62 41.5 102t101.5 41q29 0 60 -16.5t42 -41.5q3 -5 -2 -9t-14 -3q-28 9 -78 9q-48 0 -69 -27
q-15 -20 -19 -51q0 -8 2 -11q6 -26 37 -42q25 -12 56 -13q52 -2 87 19q12 7 21 7q11 0 11 -15z" />
    <glyph glyph-name="quotesingle" unicode="&#x6f5;" horiz-adv-x="540" 
d="M479 141q0 -49 -30 -99q-32 -54 -86 -54q-64 0 -93 56q-35 -64 -106 -66q-50 -1 -80 43q-27 38 -28 90q-1 143 156 419l-21 26l44 93q83 -94 156 -216q88 -148 88 -236v-56zM437 146q0 69 -90 209q-59 91 -110 150q-126 -246 -126 -343q0 -34 15 -58q17 -28 49 -28
q74 0 81 70q3 21 16 21t17 -21q13 -67 81 -67q29 0 49 21q18 18 18 46z" />
    <glyph glyph-name="parenleft" unicode="&#x665;" horiz-adv-x="540" 
d="M479 141q0 -49 -30 -99q-32 -54 -86 -54q-64 0 -93 56q-35 -64 -106 -66q-50 -1 -80 43q-27 38 -28 90q-1 143 156 419l-21 26l44 93q83 -94 156 -216q88 -148 88 -236v-56zM437 146q0 69 -90 209q-59 91 -110 150q-126 -246 -126 -343q0 -34 15 -58q17 -28 49 -28
q74 0 81 70q3 21 16 21t17 -21q13 -67 81 -67q29 0 49 21q18 18 18 46z" />
    <glyph glyph-name="parenright" unicode="&#x6f6;" horiz-adv-x="498" 
d="M463 455l-38 -110q-87 -26 -181 -108q-106 -93 -169 -238q-7 -17 -18 -17q-12 0 -10 20q10 83 55 171t99 137q-56 5 -94 38t-39 89q-1 50 65 127q72 84 139 84q36 0 76 -30q36 -27 39 -53q1 -7 -2 -14q-6 -3 -14 -1q-61 14 -101 14q-54 0 -93 -32q-35 -28 -35 -64
q-1 -72 122 -72q35 0 90 26q29 14 87 43q13 7 20 3q4 -2 2 -13z" />
    <glyph glyph-name="asterisk" unicode="&#x666;" horiz-adv-x="498" 
d="M463 455l-38 -110q-87 -26 -181 -108q-106 -93 -169 -238q-7 -17 -18 -17q-12 0 -10 20q10 83 55 171t99 137q-56 5 -94 38t-39 89q-1 50 65 127q72 84 139 84q36 0 76 -30q36 -27 39 -53q1 -7 -2 -14q-6 -3 -14 -1q-61 14 -101 14q-54 0 -93 -32q-35 -28 -35 -64
q-1 -72 122 -72q35 0 90 26q29 14 87 43q13 7 20 3q4 -2 2 -13z" />
    <glyph glyph-name="plus" unicode="&#x667;" horiz-adv-x="540" 
d="M492 553q-95 -125 -144 -278q-24 -73 -45 -212q-13 -82 -31 -82q-14 0 -27 80q-19 123 -50 216q-62 182 -153 269l32 89q5 15 7 15q3 -1 13 -12q67 -78 125 -236q49 -135 54 -218q11 101 48 215q51 158 128 246q4 5 10 11q2 0 6 -15z" />
    <glyph glyph-name="comma" unicode="&#x668;" horiz-adv-x="540" 
d="M42 81q32 43 50 73q55 87 93 207q25 78 46 210q14 84 31 84q14 0 27 -81q22 -130 51 -216q58 -177 152 -267l-31 -91q-5 -14 -8 -15q-4 2 -13 12q-70 80 -125 237q-50 142 -53 216q-12 -99 -49 -215q-49 -156 -127 -246q-5 -4 -11 -9q-4 0 -8 12z" />
    <glyph glyph-name="hyphen" unicode="&#x669;" horiz-adv-x="540" 
d="M453 91l-22 -100q0 -11 -4 -11q-3 0 -14 12q-57 61 -75 136q-16 65 -18 217q-41 -13 -103 -14q-123 -1 -123 106q0 77 36 139q42 73 100 73q141 1 141 -235.5t82 -322.5zM310 438q-2 41 -26 75q-27 37 -66 37q-28 0 -46 -19q-27 -19 -27 -54q0 -52 89 -53q37 -1 76 14z
" />
    <glyph glyph-name="period" unicode="&#x640;" horiz-adv-x="248" 
d="M263 0h-280v92h280v-92z" />
    <glyph glyph-name="slash" unicode="&#x621;" horiz-adv-x="402" 
d="M402 153q-9 -29 -29 -68q-131 -13 -266 -88q1 7 6 44q8 15 89 54q-66 34 -66 71q0 44 52 92t97 49q21 0 43 -14t28 -33q5 -9 5 -18q0 -16 -16 -16h-6q-1 0 -33 12q-18 6 -41 6q-18 0 -44 -12q-30 -15 -30 -31q0 -14 20 -33q17 -17 33 -24q20 -9 45 -9q26 0 56 7
q24 4 57 11z" />
    <glyph glyph-name="zero" unicode="&#x627;" horiz-adv-x="227" 
d="M221 99q0 -47 -20 -89q-12 -25 -16 -25q-5 0 -5 32q0 129 -48 668l65 61q10 9 13 11q1 -2 2 -16q9 -135 9 -642z" />
    <glyph glyph-name="one" unicode="&#xfe00;" horiz-adv-x="332" 
d="M349 0h-53q-77 0 -112 54q-33 51 -33 170v150q0 103 -19 309l48 52q14 14 17 -2q16 -102 16 -312v-232q0 -97 96 -97h40v-92z" />
    <glyph glyph-name="two" unicode="&#x622;" horiz-adv-x="321" 
d="M276 99q0 -47 -21 -89q-12 -25 -16 -25t-4 32q0 135 -49 668l66 61q5 4 9 9l2 2q3 0 4 -16q9 -162 9 -642zM328 846q-52 -42 -128 -42q-11 0 -33.5 3.5t-33.5 3.5q-9 0 -21.5 -17t-19.5 -18q-9 0 -9 15q0 13 13 38q13 35 25 35q16 0 46.5 -5t45.5 -5q68 0 102 8
q15 6 24 6q4 0 5 -2q0 -4 -16 -20z" />
    <glyph glyph-name="three" unicode="&#xfe01;" horiz-adv-x="383" 
d="M398 0h-54q-89 0 -123 72q-23 50 -22 152l1 150q1 102 -20 309l50 52q13 13 15 -2q18 -119 18 -312v-232q0 -97 93 -97h42v-92zM328 843q-49 -43 -128 -43q-26 0 -42 2q-12 2 -25 4q-8 0 -21.5 -18t-19.5 -18q-9 0 -9 15q0 10 13.5 41.5t24.5 32.5q13 0 41 -6
q46 -6 51 -6q26 0 68 7.5t58 7.5q3 0 5 -2q0 -6 -16 -17z" />
    <glyph glyph-name="four" unicode="&#x623;" horiz-adv-x="309" 
d="M260 99q0 -47 -21 -89q-13 -25 -17 -25t-4 32q0 141 -47 668l64 61q5 5 13 11q3 0 4 -16q8 -141 8 -642zM304 857l-9 -40q-86 -16 -178 -49v28q24 14 51 30q-49 31 -49 58q0 23 34.5 63.5t66.5 40.5q41 0 61 -40q6 -10 1 -17q-2 -2 -6 -2q-3 0 -11 2q-18 7 -52 7
q-16 0 -30 -10q-17 -9 -17 -18q0 -24 32 -40q26 -13 52 -13q20 0 44 9h11q0 -4 -1 -9z" />
    <glyph glyph-name="five" unicode="&#xfe03;" horiz-adv-x="371" 
d="M388 0h-54q-89 0 -123 72q-23 50 -23 152v150q0 132 -17 309l48 52q14 15 16 -2q17 -111 17 -312v-232q0 -97 93 -97h43v-92zM310 857l-10 -40q-85 -15 -177 -49v28q8 5 52 30q-50 31 -51 58t36 65.5t66 38.5q41 0 60 -40q4 -8 2 -17q-1 -2 -6 -2t-11 2q-17 7 -51 7
q-16 0 -32.5 -9.5t-16.5 -18.5q0 -23 31 -39q27 -14 52 -14q21 0 44 9h12q2 -3 0 -9z" />
    <glyph glyph-name="six" unicode="&#x625;" horiz-adv-x="227" 
d="M221 99q0 -47 -20 -89q-12 -25 -16 -25q-5 0 -5 32q0 129 -48 668l65 61q10 9 13 11q1 -2 2 -16q9 -135 9 -642zM297 -210l-9 -40q-86 -16 -178 -49v28q24 14 52 30q-50 31 -50 58q0 23 34.5 63.5t66.5 40.5q42 0 61 -40q7 -10 1 -17q-2 -2 -5 -2q-4 0 -11 2q-19 7 -52 7
q-16 0 -31.5 -9.5t-15.5 -18.5q0 -24 31 -40q26 -13 52 -13q21 0 44 9h11q0 -4 -1 -9z" />
    <glyph glyph-name="seven" unicode="&#xfe05;" horiz-adv-x="332" 
d="M349 0h-53q-77 0 -112 54q-33 51 -33 170v150q0 103 -19 309l48 52q14 14 17 -2q16 -102 16 -312v-232q0 -97 96 -97h40v-92zM330 -210l-9 -40q-86 -16 -178 -49v28q24 14 52 30q-50 31 -50 58q0 23 34.5 63.5t66.5 40.5q42 0 61 -40q7 -10 1 -17q-2 -2 -5 -2q-4 0 -11 2
q-19 7 -52 7q-16 0 -31.5 -9.5t-15.5 -18.5q0 -24 31 -40q26 -13 52 -13q21 0 44 9h11q0 -4 -1 -9z" />
    <glyph glyph-name="eight" unicode="&#xfe06;" horiz-adv-x="227" 
d="M221 99q0 -47 -20 -89q-12 -25 -16 -25q-5 0 -5 32q0 129 -48 668l65 61q10 9 13 11q1 -2 2 -16q9 -135 9 -642z" />
    <glyph glyph-name="nine" unicode="&#xfe07;" horiz-adv-x="332" 
d="M349 0h-53q-77 0 -112 54q-33 51 -33 170v150q0 103 -19 309l48 52q14 14 17 -2q16 -102 16 -312v-232q0 -97 96 -97h40v-92z" />
    <glyph glyph-name="colon" unicode="&#x671;" horiz-adv-x="227" 
d="M221 99q0 -47 -20 -89q-12 -25 -16 -25q-5 0 -5 32q0 129 -48 668l65 61q10 9 13 11q1 -2 2 -16q9 -135 9 -642z" />
    <glyph glyph-name="semicolon" unicode="&#xfe08;" horiz-adv-x="332" 
d="M349 0h-53q-77 0 -112 54q-33 51 -33 170v150q0 103 -19 309l48 52q14 14 17 -2q16 -102 16 -312v-232q0 -97 96 -97h40v-92z" />
    <glyph glyph-name="less" unicode="&#x628;" horiz-adv-x="867" 
d="M866 178q0 -88 -59 -125q-50 -33 -189 -50q-103 -13 -199 -13q-314 0 -314 171q0 59 44 121q8 12 17 12q16 0 6 -24q-18 -42 -18 -71q-1 -116 299 -116q143 0 248 17q115 19 115 52q0 15 -55 92l39 75q7 14 15 0q51 -86 51 -141zM554 -179l-64 -64l-66 65l64 65z" />
    <glyph glyph-name="equal" unicode="&#xfe09;" horiz-adv-x="943" 
d="M959 0h-34q-68 0 -103 35q-27 27 -29 73q-130 -122 -405 -122q-283 0 -283 172q0 58 44 120q7 11 17 11q16 0 6 -24q-18 -42 -18 -70q-1 -117 257 -118q299 0 399 131q20 26 28 26t8 -15q0 -11 -3 -32q-5 -28 -5 -30q0 -65 87 -65h34v-92zM537 -179l-64 -64l-65 65l65 65
z" />
    <glyph glyph-name="greater" unicode="&#xfe0a;" horiz-adv-x="389" 
d="M405 0h-61q-109 0 -145 73q-44 -73 -164 -73h-52v92h71q116 0 126 91q5 35 19 35q12 0 16 -38q9 -88 121 -88h69v-92zM234 -174l-65 -64l-64 64l64 65z" />
    <glyph glyph-name="question" unicode="&#xfe0b;" horiz-adv-x="206" 
d="M205 158q0 -158 -155 -158h-67v92h54q118 0 118 42q0 30 -53 99l32 78q4 10 8 11q4 0 13 -13q50 -73 50 -151zM179 -174l-63 -64l-65 64l65 65z" />
    <glyph glyph-name="at" unicode="&#x67e;" horiz-adv-x="867" 
d="M866 178q0 -88 -59 -125q-50 -33 -189 -50q-103 -13 -199 -13q-314 0 -314 171q0 59 44 121q8 12 17 12q16 0 6 -24q-18 -42 -18 -71q-1 -116 299 -116q143 0 248 17q115 19 115 52q0 15 -55 92l39 75q7 14 15 0q51 -86 51 -141zM424 -278l58 57l58 -58l-58 -58z
M353 -155l58 57l59 -57l-59 -57zM493 -155l58 57l58 -57l-58 -57z" />
    <glyph glyph-name="A" unicode="&#xfe0c;" horiz-adv-x="943" 
d="M959 0h-34q-68 0 -103 35q-27 27 -29 73q-130 -122 -405 -122q-283 0 -283 172q0 58 44 120q7 11 17 11q16 0 6 -24q-18 -42 -18 -70q-1 -117 257 -118q299 0 399 131q20 26 28 26t8 -15q0 -11 -3 -32q-5 -28 -5 -30q0 -65 87 -65h34v-92zM424 -278l58 57l58 -58l-58 -58
zM353 -155l58 57l59 -57l-59 -57zM493 -155l58 57l58 -57l-58 -57z" />
    <glyph glyph-name="B" unicode="&#xfe0d;" horiz-adv-x="389" 
d="M405 0h-61q-109 0 -145 73q-44 -73 -164 -73h-52v92h71q116 0 126 91q5 35 19 35q12 0 16 -38q9 -88 121 -88h69v-92zM94 -278l58 57l58 -58l-58 -58zM23 -155l56 57l60 -57l-58 -57zM163 -155l58 57l58 -57l-58 -57z" />
    <glyph glyph-name="C" unicode="&#xfe0e;" horiz-adv-x="285" 
d="M205 158q0 -158 -155 -158h-67v92h54q118 0 118 42q0 30 -53 99l32 78q4 10 8 11q4 0 13 -13q50 -73 50 -151zM88 -278l57 57l59 -58l-58 -58zM17 -155l59 57l57 -57l-57 -57zM158 -155l57 57l60 -57l-58 -57z" />
    <glyph glyph-name="D" unicode="&#x62a;" horiz-adv-x="867" 
d="M866 178q0 -88 -59 -125q-50 -33 -189 -50q-103 -13 -199 -13q-314 0 -314 171q0 59 44 121q8 12 17 12q16 0 6 -24q-18 -42 -18 -71q-1 -116 299 -116q143 0 248 17q115 19 115 52q0 15 -55 92l39 75q7 14 15 0q51 -86 51 -141zM604 459l-63 -61l-60 63l60 60zM468 459
l-62 -61l-62 63l62 60z" />
    <glyph glyph-name="E" unicode="&#xfe0f;" horiz-adv-x="943" 
d="M959 0h-34q-68 0 -103 35q-27 27 -29 73q-130 -122 -405 -122q-283 0 -283 172q0 58 44 120q7 11 17 11q16 0 6 -24q-18 -42 -18 -70q-1 -117 257 -118q299 0 399 131q20 26 28 26t8 -15q0 -11 -3 -32q-5 -28 -5 -30q0 -65 87 -65h34v-92zM604 459l-63 -61l-60 63l60 60z
M468 459l-62 -61l-62 63l62 60z" />
    <glyph glyph-name="F" unicode="&#xfe10;" horiz-adv-x="389" 
d="M405 0h-61q-109 0 -145 73q-44 -73 -164 -73h-52v92h71q116 0 126 91q5 35 19 35q12 0 16 -38q9 -88 121 -88h69v-92zM272 459l-61 -61l-60 63l60 60zM136 459l-60 -61l-61 63l61 60z" />
    <glyph glyph-name="G" unicode="&#xfe11;" horiz-adv-x="267" 
d="M205 158q0 -158 -155 -158h-67v92h54q118 0 118 42q0 30 -53 99l32 78q4 10 8 11q4 0 13 -13q50 -73 50 -151zM267 504l-61 -62l-62 62l62 60zM132 504l-62 -62l-61 62l61 60z" />
    <glyph glyph-name="H" unicode="&#x62b;" horiz-adv-x="867" 
d="M866 178q0 -88 -59 -125q-50 -33 -189 -50q-103 -13 -199 -13q-314 0 -314 171q0 59 44 121q8 12 17 12q16 0 6 -24q-18 -42 -18 -71q-1 -116 299 -116q143 0 248 17q115 19 115 52q0 15 -55 92l39 75q7 14 15 0q51 -86 51 -141zM547 520l-59 -57l-58 58l57 58zM617 396
l-58 -57l-58 58l57 57zM475 396l-56 -57l-59 58l59 57z" />
    <glyph glyph-name="I" unicode="&#xfe12;" horiz-adv-x="943" 
d="M959 0h-34q-68 0 -103 35q-27 27 -29 73q-130 -122 -405 -122q-283 0 -283 172q0 58 44 120q7 11 17 11q16 0 6 -24q-18 -42 -18 -70q-1 -117 257 -118q299 0 399 131q20 26 28 26t8 -15q0 -11 -3 -32q-5 -28 -5 -30q0 -65 87 -65h34v-92zM535 520l-58 -57l-58 58l58 58z
M606 396l-58 -57l-58 58l58 57zM465 396l-58 -57l-58 58l58 57z" />
    <glyph glyph-name="J" unicode="&#xfe13;" horiz-adv-x="389" 
d="M405 0h-61q-109 0 -145 73q-44 -73 -164 -73h-52v92h71q116 0 126 91q5 35 19 35q12 0 16 -38q9 -88 121 -88h69v-92zM205 520l-59 -57l-58 58l58 58zM276 396l-58 -57l-58 58l57 57zM134 396l-57 -57l-58 58l58 57z" />
    <glyph glyph-name="K" unicode="&#xfe14;" horiz-adv-x="267" 
d="M205 158q0 -158 -155 -158h-67v92h54q118 0 118 42q0 30 -53 99l32 78q4 10 8 11q4 0 13 -13q50 -73 50 -151zM188 613l-58 -59l-57 60l57 56zM260 490l-59 -59l-58 59l58 58zM119 490l-58 -59l-59 59l59 58z" />
    <glyph glyph-name="L" unicode="&#x62c;" horiz-adv-x="664" 
d="M685 -262q-57 -52 -124 -73q-57 -17 -144 -17q-168 0 -250 82q-62 64 -62 159q0 228 301 349q-122 21 -180 22q-50 0 -82 -33q-16 -16 -33 -32q-8 0 -6 20q7 38 29 72q39 58 110 60q46 0 163 -20t176 -20h58q22 0 23 -6q0 8 -5 -17l-23 -62q-32 -1 -131 -14
q-138 -25 -245 -106q-103 -77 -103 -170q0 -91 80.5 -144.5t220.5 -54.5q118 -2 216 25q7 3 16 3q7 0 9 -5q0 -6 -14 -18zM484 -50l-63 -63l-66 63l65 65z" />
    <glyph glyph-name="M" unicode="&#xfe15;" horiz-adv-x="716" 
d="M734 0h-77q-159 0 -159 143q0 30 7 65q-126 -27 -222 -89q-125 -81 -126 -187q-1 -90 80 -144t221 -55q118 -2 216 25q7 3 16 3q7 0 9 -5q0 -6 -14 -18q-57 -52 -124 -73q-57 -17 -144 -17q-168 0 -250 82q-62 64 -62 159q0 228 301 349q-122 21 -180 22q-50 0 -82 -33
q-16 -16 -33 -32q-8 0 -6 20q7 38 29 72q39 58 110 60q46 0 163 -20t176 -20h58q22 0 23 -6q0 8 -5 -17l-21 -62q-48 -2 -100 -9q-3 -33 -3 -30q0 -91 124 -91h75v-92zM437 -56l-65 -64l-65 64l64 65z" />
    <glyph glyph-name="N" unicode="&#xfe16;" horiz-adv-x="691" 
d="M712 0h-79q-156 0 -156 154q0 26 2 42q-47 -23 -150 -86q-86 -53 -138 -76q-76 -34 -150 -34h-58v92h60q97 0 196 50q57 30 174 89q-5 1 -51 12t-87 22q-84 22 -98 22q-42 0 -93 -43q-8 -7 -17 -7q-8 0 -8 9q0 6 3 13q39 115 133 117q29 1 91 -20q89 -29 143 -41
q76 -18 190 -15q7 0 13 -1t7 -1q5 -4 -3 -19l-27 -68q-75 0 -91 -9q0 -53 12 -72q24 -38 105 -38h77v-92zM410 -161l-65 -65l-64 66l64 64z" />
    <glyph glyph-name="O" unicode="&#xfe17;" horiz-adv-x="641" 
d="M633 230l-35 -62q-90 2 -124 -11q-48 -18 -142 -65t-144 -66q-72 -26 -147 -26h-58v92h60q109 0 194 37q61 27 184 80q-43 8 -140 45q-81 31 -104 31q-43 0 -93 -41q-8 -7 -17 -7q-8 0 -8 9q0 6 3 13q38 113 133 113q31 0 91 -27q95 -42 143 -58q73 -25 193 -34
q19 -2 19 -7q0 -1 -8 -16zM372 -161l-63 -65l-66 66l64 64z" />
    <glyph glyph-name="P" unicode="&#x686;" horiz-adv-x="664" 
d="M685 -262q-57 -52 -124 -73q-57 -17 -144 -17q-168 0 -250 82q-62 64 -62 159q0 228 301 349q-122 21 -180 22q-50 0 -82 -33q-16 -16 -33 -32q-8 0 -6 20q7 38 29 72q39 58 110 60q46 0 163 -20t176 -20h58q22 0 23 -6q0 8 -5 -17l-23 -62q-32 -1 -131 -14
q-138 -25 -245 -106q-103 -77 -103 -170q0 -91 80.5 -144.5t220.5 -54.5q118 -2 216 25q7 3 16 3q7 0 9 -5q0 -6 -14 -18zM363 -119l58 58l58 -58l-58 -58zM290 6l59 56l59 -59l-57 -56zM432 6l59 56l58 -59l-58 -56z" />
    <glyph glyph-name="Q" unicode="&#xfe18;" horiz-adv-x="716" 
d="M734 0h-77q-159 0 -159 143q0 30 7 65q-126 -27 -222 -89q-125 -81 -126 -187q-1 -90 80 -144t221 -55q118 -2 216 25q7 3 16 3q7 0 9 -5q0 -6 -14 -18q-57 -52 -124 -73q-57 -17 -144 -17q-168 0 -250 82q-62 64 -62 159q0 228 301 349q-122 21 -180 22q-50 0 -82 -33
q-16 -16 -33 -32q-8 0 -6 20q7 38 29 72q39 58 110 60q46 0 163 -20t176 -20h58q22 0 23 -6q0 8 -5 -17l-21 -62q-48 -2 -100 -9q-3 -33 -3 -30q0 -91 124 -91h75v-92zM309 -141l57 58l58 -58l-58 -58zM238 -17l57 58l59 -59l-58 -58zM378 -17l59 58l58 -59l-58 -58z" />
    <glyph glyph-name="R" unicode="&#xfe19;" horiz-adv-x="691" 
d="M712 0h-79q-156 0 -156 154q0 26 2 42q-47 -23 -150 -86q-86 -53 -138 -76q-76 -34 -150 -34h-58v92h60q97 0 196 50q57 30 174 89q-5 1 -51 12t-87 22q-84 22 -98 22q-42 0 -93 -43q-8 -7 -17 -7q-8 0 -8 9q0 6 3 13q39 115 133 117q29 1 91 -20q89 -29 143 -41
q76 -18 190 -15q7 0 13 -1t7 -1q5 -4 -3 -19l-27 -68q-75 0 -91 -9q0 -53 12 -72q24 -38 105 -38h77v-92zM305 -271l58 59l58 -60l-58 -57zM234 -149l56 59l59 -59l-56 -57zM374 -149l57 59l60 -59l-59 -57z" />
    <glyph glyph-name="S" unicode="&#xfe1a;" horiz-adv-x="641" 
d="M633 230l-35 -62q-90 2 -124 -11q-48 -18 -142 -65t-144 -66q-72 -26 -147 -26h-58v92h60q109 0 194 37q61 27 184 80q-43 8 -140 45q-81 31 -104 31q-43 0 -93 -41q-8 -7 -17 -7q-8 0 -8 9q0 6 3 13q38 113 133 113q31 0 91 -27q95 -42 143 -58q73 -25 193 -34
q19 -2 19 -7q0 -1 -8 -16zM267 -271l56 59l59 -60l-56 -57zM195 -149l58 59l59 -59l-58 -57zM337 -149l58 59l58 -59l-58 -57z" />
    <glyph glyph-name="T" unicode="&#x62d;" horiz-adv-x="664" 
d="M685 -262q-57 -52 -124 -73q-57 -17 -144 -17q-168 0 -250 82q-62 64 -62 159q0 228 301 349q-122 21 -180 22q-50 0 -82 -33q-16 -16 -33 -32q-8 0 -6 20q7 38 29 72q39 58 110 60q46 0 163 -20t176 -20h58q22 0 23 -6q0 8 -5 -17l-23 -62q-32 -1 -131 -14
q-138 -25 -245 -106q-103 -77 -103 -170q0 -91 80.5 -144.5t220.5 -54.5q118 -2 216 25q7 3 16 3q7 0 9 -5q0 -6 -14 -18z" />
    <glyph glyph-name="U" unicode="&#xfe1b;" horiz-adv-x="716" 
d="M734 0h-77q-159 0 -159 143q0 30 7 65q-126 -27 -222 -89q-125 -81 -126 -187q-1 -90 80 -144t221 -55q118 -2 216 25q7 3 16 3q7 0 9 -5q0 -6 -14 -18q-57 -52 -124 -73q-57 -17 -144 -17q-168 0 -250 82q-62 64 -62 159q0 228 301 349q-122 21 -180 22q-50 0 -82 -33
q-16 -16 -33 -32q-8 0 -6 20q7 38 29 72q39 58 110 60q46 0 163 -20t176 -20h58q22 0 23 -6q0 8 -5 -17l-21 -62q-48 -2 -100 -9q-3 -33 -3 -30q0 -91 124 -91h75v-92z" />
    <glyph glyph-name="V" unicode="&#xfe1c;" horiz-adv-x="691" 
d="M712 0h-79q-156 0 -156 154q0 26 2 42q-47 -23 -150 -86q-86 -53 -138 -76q-76 -34 -150 -34h-58v92h60q97 0 196 50q57 30 174 89q-5 1 -51 12t-87 22q-84 22 -98 22q-42 0 -93 -43q-8 -7 -17 -7q-8 0 -8 9q0 6 3 13q39 115 133 117q29 1 91 -20q89 -29 143 -41
q76 -18 190 -15q7 0 13 -1t7 -1q5 -4 -3 -19l-27 -68q-75 0 -91 -9q0 -53 12 -72q24 -38 105 -38h77v-92z" />
    <glyph glyph-name="W" unicode="&#xfe1d;" horiz-adv-x="641" 
d="M633 230l-35 -62q-90 2 -124 -11q-48 -18 -142 -65t-144 -66q-72 -26 -147 -26h-58v92h60q109 0 194 37q61 27 184 80q-43 8 -140 45q-81 31 -104 31q-43 0 -93 -41q-8 -7 -17 -7q-8 0 -8 9q0 6 3 13q38 113 133 113q31 0 91 -27q95 -42 143 -58q73 -25 193 -34
q19 -2 19 -7q0 -1 -8 -16z" />
    <glyph glyph-name="X" unicode="&#x62e;" horiz-adv-x="664" 
d="M685 -262q-57 -52 -124 -73q-57 -17 -144 -17q-168 0 -250 82q-62 64 -62 159q0 228 301 349q-122 21 -180 22q-50 0 -82 -33q-16 -16 -33 -32q-8 0 -6 20q7 38 29 72q39 58 110 60q46 0 163 -20t176 -20h58q22 0 23 -6q0 8 -5 -17l-23 -62q-32 -1 -131 -14
q-138 -25 -245 -106q-103 -77 -103 -170q0 -91 80.5 -144.5t220.5 -54.5q118 -2 216 25q7 3 16 3q7 0 9 -5q0 -6 -14 -18zM462 558l-65 -65l-65 65l65 65z" />
    <glyph glyph-name="Y" unicode="&#xfe1e;" horiz-adv-x="716" 
d="M734 0h-77q-159 0 -159 143q0 30 7 65q-126 -27 -222 -89q-125 -81 -126 -187q-1 -90 80 -144t221 -55q118 -2 216 25q7 3 16 3q7 0 9 -5q0 -6 -14 -18q-57 -52 -124 -73q-57 -17 -144 -17q-168 0 -250 82q-62 64 -62 159q0 228 301 349q-122 21 -180 22q-50 0 -82 -33
q-16 -16 -33 -32q-8 0 -6 20q7 38 29 72q39 58 110 60q46 0 163 -20t176 -20h58q22 0 23 -6q0 8 -5 -17l-21 -62q-48 -2 -100 -9q-3 -33 -3 -30q0 -91 124 -91h75v-92zM462 558l-65 -65l-65 65l65 65z" />
    <glyph glyph-name="Z" unicode="&#xfe1f;" horiz-adv-x="691" 
d="M712 0h-79q-156 0 -156 154q0 26 2 42q-47 -23 -150 -86q-86 -53 -138 -76q-76 -34 -150 -34h-58v92h60q97 0 196 50q57 30 174 89q-5 1 -51 12t-87 22q-84 22 -98 22q-42 0 -93 -43q-8 -7 -17 -7q-8 0 -8 9q0 6 3 13q39 115 133 117q29 1 91 -20q89 -29 143 -41
q76 -18 190 -15q7 0 13 -1t7 -1q5 -4 -3 -19l-27 -68q-75 0 -91 -9q0 -53 12 -72q24 -38 105 -38h77v-92zM408 591l-64 -65l-63 65l63 65z" />
    <glyph glyph-name="bracketleft" unicode="&#xfe20;" horiz-adv-x="641" 
d="M633 230l-35 -62q-90 2 -124 -11q-48 -18 -142 -65t-144 -66q-72 -26 -147 -26h-58v92h60q109 0 194 37q61 27 184 80q-43 8 -140 45q-81 31 -104 31q-43 0 -93 -41q-8 -7 -17 -7q-8 0 -8 9q0 6 3 13q38 113 133 113q31 0 91 -27q95 -42 143 -58q73 -25 193 -34
q19 -2 19 -7q0 -1 -8 -16zM408 591l-64 -65l-63 65l63 65z" />
    <glyph glyph-name="backslash" unicode="&#x62f;" horiz-adv-x="492" 
d="M491 166q0 -166 -219 -166q-94 0 -130.5 29t-36.5 98q0 38 19 70q6 16 15 16q10 0 7 -19q-2 -16 -2 -26q0 -37 27 -57q32 -19 106 -19q172 0 172 53q0 85 -201 232l23 80q2 7 7 13q4 0 16 -11q76 -55 133 -128q64 -82 64 -165z" />
    <glyph glyph-name="bracketright" unicode="&#xfe21;" horiz-adv-x="608" 
d="M625 0h-35q-68 0 -122 92q-30 -52 -65 -72q-42 -23 -132 -23q-77 0 -116 21q-50 28 -50 98q0 37 27 86q6 9 13 9q8 0 8 -12q0 -11 -1.5 -19.5t-1.5 -19.5q0 -72 120 -72q170 0 170 66q0 34 -99 259l36 60q4 11 9 13q1 0 10 -15q32 -80 108 -283q34 -96 100 -96h21v-92z
" />
    <glyph glyph-name="asciicircum" unicode="&#x630;" horiz-adv-x="492" 
d="M493 166q0 -166 -218 -166q-84 0 -120 22q-48 28 -48 105q0 40 18 70q6 16 17 16q8 0 7 -19q-3 -9 -3 -26q0 -37 26 -57q32 -19 106 -19q174 0 174 53q0 86 -202 232l22 80q4 9 7 13q4 0 16 -11q74 -53 133 -128q65 -82 65 -165zM341 649l-64 -65l-65 66l65 64z" />
    <glyph glyph-name="underscore" unicode="&#xfe22;" horiz-adv-x="609" 
d="M627 0h-36q-69 0 -120 92q-33 -59 -83 -79q-39 -16 -116 -16q-78 0 -115 20q-49 28 -50 99q-1 34 27 86q5 9 15 9q5 0 5 -12q0 -7 -1.5 -20t-1.5 -19q0 -72 121 -72q169 0 169 66q0 33 -98 259l35 60q5 13 10 13q1 0 9 -15q48 -118 108 -283q34 -96 100 -96h22v-92z
M391 649l-64 -65l-65 66l65 64z" />
    <glyph glyph-name="grave" unicode="&#x631;" horiz-adv-x="399" 
d="M398 -7q1 -111 -72 -217q-61 -88 -106 -88q-91 0 -155 8q-22 4 -22 11q0 6 22 12q93 19 187 97q99 83 100 164q1 50 -84 131l37 75q4 9 7 11q2 -1 10 -10q23 -25 49.5 -90.5t26.5 -103.5z" />
    <glyph glyph-name="a" unicode="&#xfe23;" horiz-adv-x="475" 
d="M492 0h-34q-42 0 -64 15q0 -15 1 -24q0 -111 -74 -215q-62 -88 -101 -88q-91 0 -155 8q-22 4 -22 11q0 6 22 12q93 19 187 97q99 83 100 164q1 50 -84 131l37 75q7 12 17 -1q34 -46 58 -64q37 -29 86 -29h26v-92z" />
    <glyph glyph-name="b" unicode="&#x632;" horiz-adv-x="399" 
d="M398 -7q1 -111 -72 -217q-61 -88 -106 -88q-91 0 -155 8q-22 4 -22 11q0 6 22 12q93 19 187 97q99 83 100 164q1 50 -84 131l37 75q4 9 7 11q2 -1 10 -10q23 -25 49.5 -90.5t26.5 -103.5zM340 417l-64 -64l-65 66l65 63z" />
    <glyph glyph-name="c" unicode="&#xfe24;" horiz-adv-x="475" 
d="M492 0h-34q-42 0 -64 15q0 -15 1 -24q0 -111 -74 -215q-62 -88 -101 -88q-91 0 -155 8q-22 4 -22 11q0 6 22 12q93 19 187 97q99 83 100 164q1 50 -84 131l37 75q7 12 17 -1q34 -46 58 -64q37 -29 86 -29h26v-92zM340 417l-64 -64l-65 66l65 63z" />
    <glyph glyph-name="d" unicode="&#x698;" horiz-adv-x="399" 
d="M398 -7q1 -111 -72 -217q-61 -88 -106 -88q-91 0 -155 8q-22 4 -22 11q0 6 22 12q93 19 187 97q99 83 100 164q1 50 -84 131l37 75q4 9 7 11q2 -1 10 -10q23 -25 49.5 -90.5t26.5 -103.5zM309 516l-58 -58l-58 58l57 58zM380 392l-59 -56l-58 58l57 56zM238 392l-58 -56
l-59 58l59 56z" />
    <glyph glyph-name="e" unicode="&#xfe25;" horiz-adv-x="475" 
d="M492 0h-34q-42 0 -64 15q0 -15 1 -24q0 -111 -74 -215q-62 -88 -101 -88q-91 0 -155 8q-22 4 -22 11q0 6 22 12q93 19 187 97q99 83 100 164q1 50 -84 131l37 75q7 12 17 -1q34 -46 58 -64q37 -29 86 -29h26v-92zM309 516l-58 -58l-58 58l57 58zM380 392l-59 -56l-58 58
l57 56zM238 392l-58 -56l-59 58l59 56z" />
    <glyph glyph-name="f" unicode="&#x633;" horiz-adv-x="1107" 
d="M1106 166q0 -166 -141 -167q-79 -1 -106 69q-38 -70 -114 -70q-29 0 -59 9q5 -25 5 -63q0 -50 -13 -88q-31 -89 -136 -137q-88 -40 -194 -40q-104 0 -170 52q-73 57 -73 157q0 50 27 114q33 76 56 82q8 0 8 -9q0 -8 -3 -14q-35 -70 -35 -131q0 -60 38 -102
q51 -56 156 -57q112 -1 204 43q71 35 91 75q4 12 1 53q-3 35 -12 58q-16 40 -77 118l35 66q5 9 12 13q3 -2 10 -12q27 -43 44 -60q33 -33 81 -34q51 -1 76 29q16 18 26 67q4 24 14 24t12 -22q6 -52 28 -72q28 -27 93 -29q20 -1 41.5 13.5t22.5 37.5q1 32 -47 87l40 68
q7 11 9 11q3 0 10 -11q40 -60 40 -128z" />
    <glyph glyph-name="g" unicode="&#xfe26;" horiz-adv-x="1201" 
d="M1218 0h-43q-79 0 -112 66q-28 -68 -105 -68q-73 0 -100 70q-38 -70 -113 -70q-29 0 -59 9q5 -25 5 -63q0 -50 -13 -88q-31 -89 -136 -137q-88 -40 -194 -40q-104 0 -170 52q-73 57 -73 157q0 50 27 114q33 76 56 82q8 0 8 -9q0 -8 -3 -14q-35 -70 -35 -131
q0 -60 38 -102q51 -56 156 -57q112 -1 204 43q71 35 91 75q4 12 1 53q-3 35 -12 58q-16 40 -77 118l35 66q5 9 12 13q3 -2 10 -12q27 -43 44 -60q33 -33 81 -34q52 -1 76 29q17 20 26 67q3 21 14 23q9 0 12 -21q12 -98 86 -99q87 -1 98 95q2 23 12 23q11 0 14 -23
q12 -93 94 -93h45v-92z" />
    <glyph glyph-name="h" unicode="&#xfe27;" horiz-adv-x="728" 
d="M745 0h-43q-78 0 -112 66q-27 -65 -106 -66q-66 -1 -102 66q-32 -65 -105 -66q-87 -1 -115 66q-46 -66 -122 -66h-57v92h64q86 0 102 93q3 23 14 23t13 -23q8 -93 99 -93q87 0 97 93q2 23 13 23q10 0 13 -23q12 -93 84 -93q88 0 98 93q2 23 12 23q11 0 14 -23
q11 -93 94 -93h45v-92z" />
    <glyph glyph-name="i" unicode="&#xfe28;" horiz-adv-x="642" 
d="M639 169q0 -70 -33 -116q-37 -52 -103 -53q-78 -1 -115 66q-43 -65 -111 -66q-87 -1 -115 66q-46 -66 -122 -66h-57v92h64q86 0 102 93q3 23 14 23t13 -23q8 -93 99 -93q53 0 74 27q15 19 23 66q3 21 14 21q9 0 12 -21q12 -93 97 -93q88 0 89 42q1 30 -44 92l35 67
q9 16 14 16q1 0 13 -20q37 -66 37 -120z" />
    <glyph glyph-name="j" unicode="&#x634;" horiz-adv-x="1107" 
d="M1106 166q0 -166 -141 -167q-79 -1 -106 69q-38 -70 -114 -70q-29 0 -59 9q5 -25 5 -63q0 -50 -13 -88q-31 -89 -136 -137q-88 -40 -194 -40q-104 0 -170 52q-73 57 -73 157q0 50 27 114q33 76 56 82q8 0 8 -9q0 -8 -3 -14q-35 -70 -35 -131q0 -60 38 -102
q51 -56 156 -57q112 -1 204 43q71 35 91 75q4 12 1 53q-3 35 -12 58q-16 40 -77 118l35 66q5 9 12 13q3 -2 10 -12q27 -43 44 -60q33 -33 81 -34q51 -1 76 29q16 18 26 67q4 24 14 24t12 -22q6 -52 28 -72q28 -27 93 -29q20 -1 41.5 13.5t22.5 37.5q1 32 -47 87l40 68
q7 11 9 11q3 0 10 -11q40 -60 40 -128zM913 581l-56 -57l-61 58l59 57zM985 458l-59 -59l-57 59l57 58zM844 458l-57 -59l-60 59l58 58z" />
    <glyph glyph-name="k" unicode="&#xfe29;" horiz-adv-x="1201" 
d="M1218 0h-43q-79 0 -112 66q-28 -68 -105 -68q-73 0 -100 70q-38 -70 -113 -70q-29 0 -59 9q5 -25 5 -63q0 -50 -13 -88q-31 -89 -136 -137q-88 -40 -194 -40q-104 0 -170 52q-73 57 -73 157q0 50 27 114q33 76 56 82q8 0 8 -9q0 -8 -3 -14q-35 -70 -35 -131
q0 -60 38 -102q51 -56 156 -57q112 -1 204 43q71 35 91 75q4 12 1 53q-3 35 -12 58q-16 40 -77 118l35 66q5 9 12 13q3 -2 10 -12q27 -43 44 -60q33 -33 81 -34q52 -1 76 29q17 20 26 67q3 21 14 23q9 0 12 -21q12 -98 86 -99q87 -1 98 95q2 23 12 23q11 0 14 -23
q12 -93 94 -93h45v-92zM913 521l-56 -58l-61 60l59 57zM985 397l-59 -57l-57 58l57 57zM844 397l-57 -57l-60 58l58 57z" />
    <glyph glyph-name="l" unicode="&#xfe2a;" horiz-adv-x="728" 
d="M745 0h-43q-78 0 -112 66q-27 -65 -106 -66q-66 -1 -102 66q-32 -65 -105 -66q-87 -1 -115 66q-46 -66 -122 -66h-57v92h64q86 0 102 93q3 23 14 23t13 -23q8 -93 99 -93q87 0 97 93q2 23 13 23q10 0 13 -23q12 -93 84 -93q88 0 98 93q2 23 12 23q11 0 14 -23
q11 -93 94 -93h45v-92zM448 521l-59 -58l-58 60l58 57zM518 397l-57 -57l-58 58l56 57zM377 397l-57 -57l-58 58l57 57z" />
    <glyph glyph-name="m" unicode="&#xfe2b;" horiz-adv-x="642" 
d="M639 169q0 -70 -33 -116q-37 -52 -103 -53q-78 -1 -115 66q-43 -65 -111 -66q-87 -1 -115 66q-46 -66 -122 -66h-57v92h64q86 0 102 93q3 23 14 23t13 -23q8 -93 99 -93q53 0 74 27q15 19 23 66q3 21 14 21q9 0 12 -21q12 -93 97 -93q88 0 89 42q1 30 -44 92l35 67
q9 16 14 16q1 0 13 -20q37 -66 37 -120zM441 581l-56 -57l-58 58l56 57zM514 458l-60 -59l-58 59l58 58zM372 458l-57 -59l-60 59l59 58z" />
    <glyph glyph-name="n" unicode="&#x635;" horiz-adv-x="1173" 
d="M1172 206q0 -115 -129 -169q-94 -39 -226 -39q-81 0 -131 17q5 -29 5 -68q0 -152 -140 -223q-89 -45 -203 -45q-104 0 -170 52q-73 57 -73 157q0 50 27 114q33 76 56 82q8 0 8 -9q0 -8 -3 -14q-35 -70 -35 -131q0 -60 38 -102q51 -56 156 -57q112 -1 204 43q71 35 91 75
q5 14 2 50q-3 35 -13 61q-17 43 -77 118l35 66q5 9 12 13q3 0 10 -12q34 -56 81 -86q211 229 344 229q54 0 92.5 -34t38.5 -88zM1114 160q1 35 -38 60q-35 21 -73 22q-106 2 -257 -151q23 -1 69 -1q82 0 165 12q133 18 134 58z" />
    <glyph glyph-name="o" unicode="&#xfe2c;" horiz-adv-x="1222" 
d="M1239 0h-63q-97 0 -173 23q-79 -25 -186 -25q-81 0 -131 17q5 -29 5 -68q0 -152 -140 -223q-89 -45 -203 -45q-104 0 -170 52q-73 57 -73 157q0 50 27 114q33 76 56 82q8 0 8 -9q0 -8 -3 -14q-35 -70 -35 -131q0 -60 38 -102q51 -56 156 -57q112 -1 204 43q71 35 91 75
q5 14 2 50q-3 35 -13 61q-17 43 -77 118l35 66q5 9 12 13q3 0 10 -12q34 -56 81 -86q211 229 344 229q54 0 92.5 -34t38.5 -88q0 -68 -52 -120q5 0 45 2q16 2 41 4h33v-92zM345 -327zM1114 160q1 35 -38 60q-35 21 -73 22q-106 2 -257 -151q23 -1 69 -1q82 0 165 12
q133 18 134 58z" />
    <glyph glyph-name="p" unicode="&#xfe2d;" horiz-adv-x="757" 
d="M771 0h-61q-82 0 -173 26q-83 -25 -208 -25q-83 0 -116 9q-55 15 -80 64q-43 -74 -116 -74h-34v92h34q90 0 104 92q5 21 15 21q12 0 15 -21q10 -84 76 -88q218 236 347 236q53 0 92.5 -35t39.5 -87q0 -70 -54 -125q15 0 44 3.5t43 3.5h32v-92zM648 164q0 31 -36 56
t-75 25q-110 0 -256 -149q44 -2 67 -2q123 0 208 18q92 21 92 52z" />
    <glyph glyph-name="q" unicode="&#xfe2e;" horiz-adv-x="706" 
d="M706 210q0 -119 -139 -172q-97 -37 -238 -37q-83 0 -116 9q-55 15 -80 64q-43 -74 -116 -74h-34v92h34q90 0 104 92q5 21 15 21q12 0 15 -21q10 -84 76 -88q218 236 347 236q53 0 92.5 -35t39.5 -87zM648 164q0 31 -36 56t-75 25q-110 0 -256 -149q44 -2 67 -2
q123 0 208 18q92 21 92 52z" />
    <glyph glyph-name="r" unicode="&#x636;" horiz-adv-x="1173" 
d="M1172 206q0 -115 -129 -169q-94 -39 -226 -39q-81 0 -131 17q5 -29 5 -68q0 -152 -140 -223q-89 -45 -203 -45q-104 0 -170 52q-73 57 -73 157q0 50 27 114q33 76 56 82q8 0 8 -9q0 -8 -3 -14q-35 -70 -35 -131q0 -60 38 -102q51 -56 156 -57q112 -1 204 43q71 35 91 75
q5 14 2 50q-3 35 -13 61q-17 43 -77 118l35 66q5 9 12 13q3 0 10 -12q34 -56 81 -86q211 229 344 229q54 0 92.5 -34t38.5 -88zM1114 160q1 35 -38 60q-35 21 -73 22q-106 2 -257 -151q23 -1 69 -1q82 0 165 12q133 18 134 58zM998 554l-64 -64l-65 64l64 64z" />
    <glyph glyph-name="s" unicode="&#xfe30;" horiz-adv-x="1222" 
d="M1239 0h-63q-97 0 -173 23q-79 -25 -186 -25q-81 0 -131 17q5 -29 5 -68q0 -152 -140 -223q-89 -45 -203 -45q-104 0 -170 52q-73 57 -73 157q0 50 27 114q33 76 56 82q8 0 8 -9q0 -8 -3 -14q-35 -70 -35 -131q0 -60 38 -102q51 -56 156 -57q112 -1 204 43q71 35 91 75
q5 14 2 50q-3 35 -13 61q-17 43 -77 118l35 66q5 9 12 13q3 0 10 -12q34 -56 81 -86q211 229 344 229q54 0 92.5 -34t38.5 -88q0 -68 -52 -120q5 0 45 2q16 2 41 4h33v-92zM345 -327zM1114 160q1 35 -38 60q-35 21 -73 22q-106 2 -257 -151q23 -1 69 -1q82 0 165 12
q133 18 134 58zM998 554l-64 -64l-65 64l64 64z" />
    <glyph glyph-name="t" unicode="&#xfe31;" horiz-adv-x="757" 
d="M771 0h-61q-82 0 -173 26q-83 -25 -208 -25q-83 0 -116 9q-55 15 -80 64q-43 -74 -116 -74h-34v92h34q90 0 104 92q5 21 15 21q12 0 15 -21q10 -84 76 -88q218 236 347 236q53 0 92.5 -35t39.5 -87q0 -70 -54 -125q15 0 44 3.5t43 3.5h32v-92zM648 164q0 31 -36 56
t-75 25q-110 0 -256 -149q44 -2 67 -2q123 0 208 18q92 21 92 52zM526 554l-64 -64l-66 64l65 64z" />
    <glyph glyph-name="u" unicode="&#xfe32;" horiz-adv-x="706" 
d="M706 210q0 -119 -139 -172q-97 -37 -238 -37q-83 0 -116 9q-55 15 -80 64q-43 -74 -116 -74h-34v92h34q90 0 104 92q5 21 15 21q12 0 15 -21q10 -84 76 -88q218 236 347 236q53 0 92.5 -35t39.5 -87zM648 164q0 31 -36 56t-75 25q-110 0 -256 -149q44 -2 67 -2
q123 0 208 18q92 21 92 52zM526 554l-64 -64l-66 64l65 64z" />
    <glyph glyph-name="v" unicode="&#x637;" horiz-adv-x="829" 
d="M828 215q0 -134 -161 -183q-101 -31 -314 -31q-91 0 -125 10q-94 27 -118 104q-2 5 -2 9q0 3 2 3q8 -2 17 -7q54 -26 150 -26q47 0 55 23q4 10 4 34q-3 224 -18 403q-6 71 -13 127l56 56q6 7 11 9q4 -4 8 -18q12 -48 34 -97q6 -13 3 -16q-2 0 -12 -1h-24q11 -201 11 -252
v-86q0 -55 -21 -134q6 0 59 49q69 65 113 93q75 47 148 48q61 1 99 -31t38 -86zM774 163q0 30 -38 59t-87 30q-85 1 -271 -153q47 -6 104 -7q109 -1 204 24q88 22 88 47z" />
    <glyph glyph-name="w" unicode="&#xfe33;" horiz-adv-x="879" 
d="M895 0h-31q-111 0 -200 25q-100 -24 -311 -24q-91 0 -125 10q-94 27 -118 104q-2 5 -2 9q0 3 2 3q8 -2 17 -7q54 -26 150 -26q32 0 49 11q10 10 10 46q-3 224 -18 403q-6 71 -13 127l56 56q6 7 11 9q4 -4 8 -18q12 -48 34 -97q6 -13 3 -16q-2 0 -12 -1h-24
q11 -201 11 -252v-86q0 -55 -21 -134q6 0 59 49q69 65 113 93q75 47 148 48q61 1 99 -31t38 -86q0 -84 -57 -130q14 0 47 3l21 2q9 1 25 2h31v-92zM774 163q0 30 -38 59t-87 30q-85 1 -271 -153q47 -6 104 -7q109 -1 204 24q88 22 88 47z" />
    <glyph glyph-name="x" unicode="&#xfe34;" horiz-adv-x="669" 
d="M685 0h-33q-111 0 -198 25q-106 -25 -311 -25h-160v92h84q50 0 56 30q3 12 2 35q-1 99 -4 177q-9 221 -27 347l57 56q5 6 10 9q4 0 7 -18q17 -57 34 -97q6 -12 6 -16q-6 0 -13 -1h-26l14 -252v-86q0 -47 -23 -134q7 0 60 49q68 64 114 93q76 47 146 48q62 1 100 -31
t38 -86q0 -82 -56 -130q11 0 45 3l45 4h33v-92zM563 163q0 30 -37.5 59t-86.5 30q-86 1 -272 -153q47 -6 104 -7q111 -1 206 24q86 21 86 47z" />
    <glyph glyph-name="y" unicode="&#xfe35;" horiz-adv-x="618" 
d="M618 215q0 -131 -143 -180q-103 -35 -332 -35h-160v92h84q52 0 57 36q2 10 1 29q-1 98 -4 177q-9 221 -27 347l57 56q5 6 10 9q4 0 7 -18q17 -57 34 -97q6 -12 6 -16q-6 0 -13 -1h-26l14 -252v-86q0 -47 -23 -134q7 0 60 49q68 64 114 93q76 47 146 48q62 1 100 -31
t38 -86zM563 163q0 30 -37.5 59t-86.5 30q-86 1 -272 -153q47 -6 104 -7q111 -1 206 24q86 21 86 47z" />
    <glyph glyph-name="z" unicode="&#x638;" horiz-adv-x="829" 
d="M828 215q0 -134 -161 -183q-101 -31 -314 -31q-91 0 -125 10q-94 27 -118 104q-2 5 -2 9q0 3 2 3q8 -2 17 -7q54 -26 150 -26q47 0 55 23q4 10 4 34q-3 224 -18 403q-6 71 -13 127l56 56q6 7 11 9q4 -4 8 -18q12 -48 34 -97q6 -13 3 -16q-2 0 -12 -1h-24q11 -201 11 -252
v-86q0 -55 -21 -134q6 0 59 49q69 65 113 93q75 47 148 48q61 1 99 -31t38 -86zM774 163q0 30 -38 59t-87 30q-85 1 -271 -153q47 -6 104 -7q109 -1 204 24q88 22 88 47zM715 554l-65 -64l-65 64l65 64z" />
    <glyph glyph-name="braceleft" unicode="&#xfe36;" horiz-adv-x="879" 
d="M895 0h-31q-111 0 -200 25q-100 -24 -311 -24q-91 0 -125 10q-94 27 -118 104q-2 5 -2 9q0 3 2 3q8 -2 17 -7q54 -26 150 -26q32 0 49 11q10 10 10 46q-3 224 -18 403q-6 71 -13 127l56 56q6 7 11 9q4 -4 8 -18q12 -48 34 -97q6 -13 3 -16q-2 0 -12 -1h-24
q11 -201 11 -252v-86q0 -55 -21 -134q6 0 59 49q69 65 113 93q75 47 148 48q61 1 99 -31t38 -86q0 -84 -57 -130q14 0 47 3l21 2q9 1 25 2h31v-92zM774 163q0 30 -38 59t-87 30q-85 1 -271 -153q47 -6 104 -7q109 -1 204 24q88 22 88 47zM715 554l-65 -64l-65 64l65 64z" />
    <glyph glyph-name="bar" unicode="&#xfe37;" horiz-adv-x="669" 
d="M685 0h-33q-111 0 -198 25q-106 -25 -311 -25h-160v92h84q50 0 56 30q3 12 2 35q-1 99 -4 177q-9 221 -27 347l57 56q5 6 10 9q4 0 7 -18q17 -57 34 -97q6 -12 6 -16q-6 0 -13 -1h-26l14 -252v-86q0 -47 -23 -134q7 0 60 49q68 64 114 93q76 47 146 48q62 1 100 -31
t38 -86q0 -82 -56 -130q11 0 45 3l45 4h33v-92zM563 163q0 30 -37.5 59t-86.5 30q-86 1 -272 -153q47 -6 104 -7q111 -1 206 24q86 21 86 47zM508 554l-62 -64l-65 64l65 64z" />
    <glyph glyph-name="braceright" unicode="&#xfe38;" horiz-adv-x="618" 
d="M618 215q0 -131 -143 -180q-103 -35 -332 -35h-160v92h84q52 0 57 36q2 10 1 29q-1 98 -4 177q-9 221 -27 347l57 56q5 6 10 9q4 0 7 -18q17 -57 34 -97q6 -12 6 -16q-6 0 -13 -1h-26l14 -252v-86q0 -47 -23 -134q7 0 60 49q68 64 114 93q76 47 146 48q62 1 100 -31
t38 -86zM563 163q0 30 -37.5 59t-86.5 30q-86 1 -272 -153q47 -6 104 -7q111 -1 206 24q86 21 86 47zM508 554l-62 -64l-65 64l65 64z" />
    <glyph glyph-name="asciitilde" unicode="&#x639;" horiz-adv-x="579" 
d="M639 -270q-79 -81 -251 -81q-124 0 -203.5 61t-79.5 167q0 171 182 276q-99 41 -99 119q0 59 59.5 127.5t126.5 68.5q79 0 121 -72q9 -15 9 -22q0 -4 -6 -4t-21 6q-37 10 -97 10q-44 0 -90 -23.5t-47 -48.5q-1 -28 46 -65t92 -38q25 0 168 45q21 7 22 7q3 0 3 -3
q-1 -8 -6 -20l-21 -69q-109 -23 -194 -58q-195 -80 -195 -191q0 -103 105 -150q76 -34 194 -35q103 -1 170 20q21 6 31 6q5 0 5 -2q0 -6 -24 -31z" />
    <glyph glyph-name="uniFE39" unicode="&#xfe39;" horiz-adv-x="664" 
d="M682 0h-33q-180 0 -295 139q-196 -107 -196 -222q0 -182 295 -182q111 0 182 23q16 5 24 5q5 0 5 -2q0 -8 -24 -32q-83 -80 -243 -81q-139 -1 -215.5 59t-76.5 168q0 104 79 195q43 50 128 107q-8 11 -26 31q-30 29 -47 35q-26 5 -28 17q0 4 8 18q40 74 139 75
q138 1 139 -83q1 -40 -81 -96q38 -39 100 -61q59 -21 124 -21h42v-92z" />
    <glyph glyph-name="uniFE3A" unicode="&#xfe3a;" horiz-adv-x="444" 
d="M461 0h-50q-117 0 -180 78q-70 -78 -183 -78h-65v92h79q81 0 117 32q-6 24 -34 52q-24 25 -36 28q-24 5 -25 16q0 7 4 18q32 74 136 74q131 0 131 -82q0 -38 -71 -98q16 -20 57 -30q28 -10 56 -10h64v-92z" />
    <glyph glyph-name="uniFE3B" unicode="&#xfe3b;" horiz-adv-x="437" 
d="M432 154l-24 -73q-72 -18 -215 -56q-97 -25 -167 -25h-43v92h68q29 0 59 7q-68 53 -69 107q-1 47 58 120q67 82 140 82q80 0 130 -74q16 -24 16 -30q0 -5 -9 -7q-5 0 -36 8q-58 14 -100 15q-39 1 -85 -25.5t-46 -51.5q0 -24 41 -65q48 -48 111 -48q17 0 163 39q6 2 13 3
q0 -1 1 -4q-2 -8 -6 -14z" />
    <glyph glyph-name="afii57434" unicode="&#x63a;" horiz-adv-x="579" 
d="M639 -270q-79 -81 -251 -81q-124 0 -203.5 61t-79.5 167q0 171 182 276q-99 41 -99 119q0 59 59.5 127.5t126.5 68.5q79 0 121 -72q9 -15 9 -22q0 -4 -6 -4t-21 6q-37 10 -97 10q-44 0 -90 -23.5t-47 -48.5q-1 -28 46 -65t92 -38q25 0 168 45q21 7 22 7q3 0 3 -3
q-1 -8 -6 -20l-21 -69q-109 -23 -194 -58q-195 -80 -195 -191q0 -103 105 -150q76 -34 194 -35q103 -1 170 20q21 6 31 6q5 0 5 -2q0 -6 -24 -31zM427 670l-65 -64l-65 66l65 64z" />
    <glyph glyph-name="uniFE3C" unicode="&#xfe3c;" horiz-adv-x="664" 
d="M682 0h-33q-180 0 -295 139q-196 -107 -196 -222q0 -182 295 -182q111 0 182 23q16 5 24 5q5 0 5 -2q0 -8 -24 -32q-83 -80 -243 -81q-139 -1 -215.5 59t-76.5 168q0 104 79 195q43 50 128 107q-8 11 -26 31q-30 29 -47 35q-26 5 -28 17q0 4 8 18q40 74 139 75
q138 1 139 -83q1 -40 -81 -96q38 -39 100 -61q59 -21 124 -21h42v-92zM421 581l-65 -65l-66 65l65 64z" />
    <glyph glyph-name="uniFE3D" unicode="&#xfe3d;" horiz-adv-x="444" 
d="M461 0h-50q-117 0 -180 78q-70 -78 -183 -78h-65v92h79q81 0 117 32q-6 24 -34 52q-24 25 -36 28q-24 5 -25 16q0 7 4 18q32 74 136 74q131 0 131 -82q0 -38 -71 -98q16 -20 57 -30q28 -10 56 -10h64v-92zM286 554l-65 -64l-63 64l63 64z" />
    <glyph glyph-name="uniFE3E" unicode="&#xfe3e;" horiz-adv-x="437" 
d="M432 154l-24 -73q-72 -18 -215 -56q-97 -25 -167 -25h-43v92h68q29 0 59 7q-68 53 -69 107q-1 47 58 120q67 82 140 82q80 0 130 -74q16 -24 16 -30q0 -5 -9 -7q-5 0 -36 8q-58 14 -100 15q-39 1 -85 -25.5t-46 -51.5q0 -24 41 -65q48 -48 111 -48q17 0 163 39q6 2 13 3
q0 -1 1 -4q-2 -8 -6 -14zM286 624l-65 -65l-63 66l63 64z" />
    <glyph glyph-name="afii57441" unicode="&#x641;" horiz-adv-x="861" 
d="M860 224q1 -94 -26 -136q-63 -98 -439 -98q-290 0 -290 162q0 80 44 143q9 14 17 14q6 0 6 -12q0 -9 -3 -15q-16 -49 -16 -78q0 -82 112 -109q57 -14 174 -14q341 0 378 70q10 19 3 54q-46 -11 -109 -11q-111 0 -111 92q0 79 36.5 138.5t87.5 59.5q54 0 92 -65
q43 -73 44 -195zM800 293q0 33 -26.5 66t-62.5 33q-30 0 -46.5 -17.5t-16.5 -42.5q-1 -50 76 -50q26 0 76 11zM762 658l-63 -65l-66 66l64 64z" />
    <glyph glyph-name="uniFE3F" unicode="&#xfe3f;" horiz-adv-x="928" 
d="M945 0h-50q-74 0 -159 48q-144 -63 -353 -63q-148 0 -216 41q-62 39 -62 118q0 80 44 143q9 13 17 13t8 -11q0 -2 -5 -14q-17 -48 -17 -76q0 -85 104 -111q50 -12 172 -12q144 0 222 27q-41 38 -41 101q0 55 42 116q46 67 97 67q57 0 87 -57q24 -46 24 -109
q0 -74 -50 -113q27 -16 101 -16h35v-92zM817 204q0 27 -27.5 59t-49.5 32t-53.5 -30t-31.5 -54q0 -26 31 -52q24 -20 55 -31q76 31 76 76zM773 592l-63 -64l-66 65l64 65z" />
    <glyph glyph-name="uniFE40" unicode="&#xfe40;" horiz-adv-x="428" 
d="M444 0h-40q-37 0 -92 15q-60 16 -84 36q-75 -51 -186 -51h-59v92h39q91 0 121 13q-44 36 -44 91q0 52 40 115q47 76 105 76q56 0 86 -61q23 -48 24 -111q1 -64 -54 -108q34 -15 113 -15h31v-92zM309 204q0 32 -28 63q-26 28 -48 29q-25 1 -54 -27.5t-33 -53.5
q0 -24 30 -53q25 -25 55 -30q28 4 53 24.5t25 47.5zM286 592l-65 -64l-64 65l63 65z" />
    <glyph glyph-name="uniFE41" unicode="&#xfe41;" horiz-adv-x="321" 
d="M322 224q1 -108 -24 -145q-53 -79 -203 -79h-112v92h79q202 0 222 66q5 28 -6 47q-45 -11 -104 -11q-112 0 -112 92q0 76 38 137t87 61q53 0 91 -65q43 -73 44 -195zM263 293q0 33 -25 65q-28 34 -64 34q-27 0 -45 -16.5t-18 -43.5q0 -50 75 -50q29 0 77 11zM230 658
l-63 -65l-65 66l64 64z" />
    <glyph glyph-name="afii57505" unicode="&#x6a4;" horiz-adv-x="861" 
d="M860 224q1 -94 -26 -136q-63 -98 -439 -98q-290 0 -290 162q0 80 44 143q9 14 17 14q6 0 6 -12q0 -9 -3 -15q-16 -49 -16 -78q0 -82 112 -109q57 -14 174 -14q341 0 378 70q10 19 3 54q-46 -11 -109 -11q-111 0 -111 92q0 79 36.5 138.5t87.5 59.5q54 0 92 -65
q43 -73 44 -195zM800 293q0 33 -26.5 66t-62.5 33q-30 0 -46.5 -17.5t-16.5 -42.5q-1 -50 76 -50q26 0 76 11zM759 741l-56 -58l-61 60l59 57zM831 617l-59 -57l-57 58l57 57zM690 617l-57 -57l-60 58l58 57z" />
    <glyph glyph-name="uniFE42" unicode="&#xfe42;" horiz-adv-x="928" 
d="M945 0h-50q-74 0 -159 48q-144 -63 -353 -63q-148 0 -216 41q-62 39 -62 118q0 80 44 143q9 13 17 13t8 -11q0 -2 -5 -14q-17 -48 -17 -76q0 -85 104 -111q50 -12 172 -12q144 0 222 27q-41 38 -41 101q0 55 42 116q46 67 97 67q57 0 87 -57q24 -46 24 -109
q0 -74 -50 -113q27 -16 101 -16h35v-92zM817 204q0 27 -27.5 59t-49.5 32t-53.5 -30t-31.5 -54q0 -26 31 -52q24 -20 55 -31q76 31 76 76zM792 642l-56 -58l-61 60l59 57zM864 518l-59 -57l-57 58l57 57zM723 518l-57 -57l-60 58l58 57z" />
    <glyph glyph-name="uniFE43" unicode="&#xfe43;" horiz-adv-x="428" 
d="M444 0h-40q-37 0 -92 15q-60 16 -84 36q-75 -51 -186 -51h-59v92h39q91 0 121 13q-44 36 -44 91q0 52 40 115q47 76 105 76q56 0 86 -61q23 -48 24 -111q1 -64 -54 -108q34 -15 113 -15h31v-92zM309 204q0 32 -28 63q-26 28 -48 29q-25 1 -54 -27.5t-33 -53.5
q0 -24 30 -53q25 -25 55 -30q28 4 53 24.5t25 47.5zM286 642l-56 -58l-61 60l59 57zM358 518l-59 -57l-57 58l57 57zM217 518l-57 -57l-60 58l58 57z" />
    <glyph glyph-name="uniFE44" unicode="&#xfe44;" horiz-adv-x="321" 
d="M322 224q1 -108 -24 -145q-53 -79 -203 -79h-112v92h79q202 0 222 66q5 28 -6 47q-45 -11 -104 -11q-112 0 -112 92q0 76 38 137t87 61q53 0 91 -65q43 -73 44 -195zM263 293q0 33 -25 65q-28 34 -64 34q-27 0 -45 -16.5t-18 -43.5q0 -50 75 -50q29 0 77 11zM242 730
l-56 -58l-61 60l59 57zM314 606l-59 -57l-57 58l57 57zM173 606l-57 -57l-60 58l58 57z" />
    <glyph glyph-name="afii57442" unicode="&#x642;" horiz-adv-x="724" 
d="M723 31l1 -79q-2 -75 -18 -109q-36 -79 -139 -124q-84 -35 -190 -37q-116 -2 -187 43q-85 54 -85 163t62 191q11 14 20 16q6 0 8 -11q0 -9 -6 -21q-32 -71 -32 -129q0 -59 47 -103q54 -52 162 -53q98 -1 176 22q110 32 136 101q12 33 -3 110q-44 -11 -107 -11
q-114 0 -114 91q0 75 38.5 137t87.5 62q74 2 113 -98q29 -73 30 -161zM658 101q0 37 -28 66.5t-65 31.5q-23 1 -41.5 -16.5t-18.5 -40.5q0 -51 77 -51q40 0 76 10zM693 473l-60 -60l-62 60l62 61zM558 473l-61 -60l-61 60l60 61z" />
    <glyph glyph-name="uniFE45" unicode="&#xfe45;" horiz-adv-x="790" 
d="M806 0h-82q1 -115 -18 -157q-35 -79 -139 -124q-84 -35 -190 -37q-116 -2 -187 43q-85 54 -85 163t62 191q11 14 20 16q6 0 8 -11q0 -9 -6 -21q-32 -71 -32 -129q0 -59 47 -103q54 -52 162 -53q98 -1 176 22q110 32 136 101q10 28 -1 99h-120q-103 0 -103 91q0 62 32 126
q37 76 93 77q59 1 100 -75q31 -57 39 -127h88v-92zM659 91q0 37 -28.5 71.5t-65.5 36.5q-21 1 -41 -19q-17 -16 -18 -41q-1 -36 37 -45q4 -1 116 -3zM693 473l-60 -60l-62 60l62 61zM558 473l-61 -60l-61 60l60 61z" />
    <glyph glyph-name="uniFE46" unicode="&#xfe46;" horiz-adv-x="428" 
d="M444 0h-40q-37 0 -92 15q-60 16 -84 36q-75 -51 -186 -51h-59v92h39q91 0 121 13q-44 36 -44 91q0 52 40 115q47 76 105 76q56 0 86 -61q23 -48 24 -111q1 -64 -54 -108q34 -15 113 -15h31v-92zM309 204q0 32 -28 63q-26 28 -48 29q-25 1 -54 -27.5t-33 -53.5
q0 -24 30 -53q25 -25 55 -30q28 4 53 24.5t25 47.5zM348 587l-61 -61l-61 61l60 62zM212 587l-60 -61l-62 61l61 62z" />
    <glyph glyph-name="uniFE47" unicode="&#xfe47;" horiz-adv-x="321" 
d="M322 224q1 -108 -24 -145q-53 -79 -203 -79h-112v92h79q202 0 222 66q5 28 -6 47q-45 -11 -104 -11q-112 0 -112 92q0 76 38 137t87 61q53 0 91 -65q43 -73 44 -195zM263 293q0 33 -25 65q-28 34 -64 34q-27 0 -45 -16.5t-18 -43.5q0 -50 75 -50q29 0 77 11zM304 652
l-62 -61l-62 61l62 62zM167 652l-60 -61l-62 61l62 62z" />
    <glyph glyph-name="afii57443" unicode="&#x643;" horiz-adv-x="669" 
d="M661 641q7 -17 6 -18q-4 -4 -12 -4h-26l27 -445q3 -64 -26 -108q-25 -39 -62 -48q-88 -24 -242 -24q-172 0 -228 23q10 92 23 92q64 -23 206 -23q209 0 252 19q26 11 23 49q-20 260 -48 538l52 49q7 6 16 15q0 -1 5 -19q8 -29 34 -96zM429 327q1 -36 -24 -66
q-27 -33 -67 -33q-48 0 -75 28q-4 6 -1 11q2 4 13 0q19 -5 45 -6q21 -1 42 6q29 10 29 28q0 2 -47 27.5t-47 38.5q0 26 34.5 80t57.5 54q11 0 24.5 -11t15.5 -21q0 -9 -10.5 -29t-16.5 -20q-3 0 -16 6l-17 7q-11 0 -22 -10.5t-11 -20.5q0 -15 25 -23q8 -2 22.5 -5t22.5 -5
q22 -10 23 -36z" />
    <glyph glyph-name="uniFE48" unicode="&#xfe48;" horiz-adv-x="838" 
d="M857 0h-33q-122 0 -149 129q-27 -58 -112 -94.5t-194 -36.5q-264 0 -264 176q0 67 38 131q10 16 19 16q7 0 7 -9q0 -2 -2 -15q-17 -37 -17 -78q-1 -58 35 -89q48 -42 171 -42q305 0 305 141v219q0 149 -5 238l67 58v-532q0 -120 102 -120h32v-92zM481 340
q1 -39 -26 -69.5t-66 -30.5q-43 0 -74 30q-6 4 -1 11q1 2 4 2t9 -2q27 -6 45 -6q66 0 70 34q0 2 -46.5 27t-46.5 37q0 27 33.5 80.5t57.5 54.5q12 1 25.5 -10t15.5 -23q0 -10 -9.5 -27t-18.5 -21q-4 0 -16.5 6.5t-17.5 6.5q-12 0 -21.5 -10t-11.5 -20q0 -16 27 -23
q22 -5 45 -11q22 -9 23 -36z" />
    <glyph glyph-name="uni06A9" unicode="&#x6a9;" horiz-adv-x="875" 
d="M1037 733q-4 -28 -30 -92q-28 -9 -172 -57q-169 -56 -209 -77q93 -92 126 -135q65 -85 72 -155q6 -63 -15 -115q-44 -104 -250 -104h-164q-290 0 -290 164q0 58 38 122q10 16 19 16q7 0 7 -11q0 -2 -2 -13q-17 -37 -17 -68q-1 -43 43 -75q62 -45 192 -45h175q86 0 134 10
q85 17 85 73q0 85 -129 202l-12 -18q-22 22 -44 51q-29 37 -31 49q0 22 10.5 64.5t18 50.5t165.5 68q146 55 280 95z" />
    <glyph glyph-name="uniFE49" unicode="&#xfe49;" horiz-adv-x="1080" 
d="M1097 0h-57q-59 0 -126 67q-26 26 -92 121q3 -79 -34 -122q-59 -68 -234 -68h-159q-290 0 -290 164q0 58 38 122q10 16 19 16q7 0 7 -11q0 -2 -2 -13q-17 -37 -17 -68q-1 -43 43 -75q62 -45 192 -45h154q136 0 184 17q58 20 58 75q0 46 -56 115q-39 48 -101 107
q-56 53 -56 57q0 79 25 114q6 8 165 66q167 61 277 95q0 -18 -23 -89q-171 -55 -387 -137q110 -99 269 -306q59 -76 92 -94q27 -16 78 -16h33v-92z" />
    <glyph glyph-name="uniFE4A" unicode="&#xfe4a;" horiz-adv-x="543" 
d="M559 0h-56q-59 0 -126 67q-22 23 -91 121q5 -188 -212 -188h-91v92h102q158 0 159 88q1 46 -56 115q-36 44 -102 107q-55 52 -55 56q0 79 26 115q4 8 154 63q165 60 285 97q0 -21 -22 -88q-122 -39 -386 -139q115 -103 270 -304q59 -76 91 -94q28 -16 79 -16h31v-92z" />
    <glyph glyph-name="uniFE4B" unicode="&#xfe4b;" horiz-adv-x="340" 
d="M506 733q-4 -28 -31 -92l-196 -62q-127 -42 -184 -72q93 -92 126 -135q65 -86 72 -155q5 -58 -18 -115q-41 -102 -249 -102h-43v92h45q91 0 134 9q85 18 86 76q0 78 -130 196l-11 -18q-18 18 -43 50q-32 39 -32 50q0 25 10 63q12 45 19 53t163 67q139 53 282 95z" />
    <glyph glyph-name="afii57509" unicode="&#x6af;" horiz-adv-x="876" 
d="M1023 759l-16 -58l-388 -125l17 57zM1040 641q-5 -26 -26 -87q-147 -36 -348 -106q144 -137 159 -233q9 -57 -13 -110q-26 -64 -88 -87q-53 -20 -165 -20h-164q-290 0 -290 164q0 58 38 122q10 16 19 16q7 0 7 -11q0 -2 -2 -13q-17 -37 -17 -68q-1 -43 43 -75
q62 -45 192 -45h175q85 0 137 10q87 16 87 71q0 64 -124 183l-10 -21q-18 18 -43 49q-30 36 -32 47q0 36 31 72q7 9 204 71q170 55 230 71z" />
    <glyph glyph-name="uniFE4C" unicode="&#xfe4c;" horiz-adv-x="1080" 
d="M1015 761l-16 -58l-386 -123l16 56zM1098 0h-46q-63 0 -127 56q-40 35 -105 123q2 -106 -81 -149q-61 -32 -180 -32h-164q-290 0 -290 164q0 58 38 122q10 16 19 16q7 0 7 -11q0 -2 -2 -13q-17 -37 -17 -68q-1 -43 43 -75q62 -45 192 -45h154q242 0 242 92q0 39 -104 143
q-95 95 -104 106q0 51 25 76q10 9 434 139q-2 -17 -25 -86q-101 -26 -351 -105q91 -96 214 -235q57 -64 84 -85q52 -41 110 -41h34v-92z" />
    <glyph glyph-name="uniFE4D" unicode="&#xfe4d;" horiz-adv-x="535" 
d="M471 761l-17 -58l-387 -123l17 56zM551 0h-46q-102 0 -229 179q-12 -179 -248 -179h-45v92h34q218 0 218 88q0 41 -103 143q-98 97 -104 106q0 49 25 76q9 9 434 139q-1 -10 -25 -86q-83 -21 -352 -105q111 -117 217 -235q69 -78 100 -98q42 -28 91 -28h33v-92z" />
    <glyph glyph-name="uniFE4E" unicode="&#xfe4e;" horiz-adv-x="329" 
d="M474 759l-15 -58l-386 -125l15 57zM492 641q-4 -26 -26 -87q-143 -35 -348 -106q145 -141 159 -233q9 -57 -13 -110q-27 -68 -103 -91q-47 -14 -143 -14h-35v92h28q226 0 226 77q0 64 -125 183l-10 -21q-18 18 -43 49q-31 38 -31 47q0 36 29 72q10 10 205 72
q164 52 230 70z" />
    <glyph glyph-name="afii57444" unicode="&#x644;" horiz-adv-x="690" 
d="M685 623q5 -12 4 -16q-2 -1 -15 -1h-26q24 -437 15 -634q-12 -281 -326 -281q-116 0 -178 56q-54 49 -54 134q0 97 55 175q5 8 15 10q10 0 10 -13q0 -4 -5 -10q-25 -62 -25 -109q0 -78 57 -119q46 -33 124 -33q73 0 158 27q112 35 112 93q0 533 -34 771l55 51q10 9 13 10
q3 -2 7 -15q11 -36 38 -96z" />
    <glyph glyph-name="uniFE4F" unicode="&#xfe4f;" horiz-adv-x="768" 
d="M784 0h-38q-62 0 -87 35q-2 -61 -18 -176q-34 -84 -120 -127q-80 -41 -185 -42t-168 48t-63 143q0 97 55 175q5 8 15 10q10 0 10 -13q0 -4 -5 -10q-25 -62 -25 -109q0 -78 57 -119q46 -33 124 -33q76 0 161 28q113 37 111 98l-10 379q-7 290 -17 397l63 55q5 -43 13 -265
l11 -306q2 -76 97 -76h19v-92z" />
    <glyph glyph-name="brokenbar" unicode="&#xfe58;" horiz-adv-x="619" 
d="M613 625q3 -11 5 -19q-2 -2 -12 -2h-24q0 -98 -22 -201q-29 -135 -80 -204q26 -54 26 -100q0 -29 -12 -60q-14 -39 -37 -45q-94 -23 -227 -16l26 88q115 53 166 123q-115 158 -264 308l-15 -25q-82 87 -82 109q0 18 15 82q3 15 8 15q3 0 24 -19q113 -102 201 -212
q94 -117 146 -210q43 74 53 203q9 121 0 238l67 61zM464 79q0 7 1 12q0 33 -23 64q-47 -55 -97 -90q79 -5 119 14z" />
    <glyph glyph-name="section" unicode="&#xfe59;" horiz-adv-x="733" 
d="M748 0h-47q-147 0 -147 208q0 40 2 73q-90 -223 -229 -323q-98 -19 -209 -23q-26 -1 -26 4q0 4 33 20l135 65q90 50 156 118q-30 116 -107 211q-46 58 -149 142l-9 -32q-37 32 -55 50q-37 38 -39 54q0 22 8 80q2 12 5 12q7 0 18 -10q155 -109 232 -205q91 -111 127 -270
q42 56 71 127q31 78 30 143q-2 97 -16 239l68 57q8 -62 14 -541q1 -107 94 -107h40v-92z" />
    <glyph glyph-name="dieresis" unicode="&#xfe5a;" horiz-adv-x="293" 
d="M309 0h-33q-101 0 -142 76q-8 -31 -44.5 -53.5t-75.5 -22.5h-31v92h32q98 0 98 83v273q0 158 -6 238l68 58v-532q0 -120 102 -120h32v-92z" />
    <glyph glyph-name="copyright" unicode="&#xfe5b;" horiz-adv-x="202" 
d="M200 622q4 -10 4 -14q-2 -1 -15 -1h-25q8 -153 5 -447q0 -73 -36 -115q-38 -45 -102 -45h-48v92h43q93 0 91 71q-6 167 -27 517l52 48q14 13 15 13q1 -1 6 -16q5 -18 37 -103z" />
    <glyph glyph-name="ordfeminine" unicode="&#x645;" horiz-adv-x="515" 
d="M514 157q0 -19 -25 -63t-42 -46q-25 0 -91.5 12.5t-101.5 12.5q-60 0 -91 -14q21 -194 22 -299q0 -38 -32 -103q-6 -12 -11 -15q-3 2 -3 13q-12 171 -34 381q-3 24 23 59q21 28 36 39q23 17 60 19q-1 5 -9 53q0 39 30 83q36 51 82 52q52 1 121 -69q66 -68 66 -115z
M450 130q-19 50 -63.5 86.5t-76.5 36.5q-23 0 -38 -10q-17 -13 -17 -31q0 -16 12 -59q77 0 183 -23z" />
    <glyph glyph-name="guillemotleft" unicode="&#xfe5c;" horiz-adv-x="647" 
d="M661 0h-36q-72 0 -111 33q4 -15 4 -43q0 -123 -81 -124q-67 -1 -107 75q-33 61 -34 135q0 8 2 29q-13 3 -25 3q-74 0 -111 -41q24 -182 24 -286q0 -42 -24 -110q-8 -22 -12 -22q-5 0 -8 30q-10 96 -37 366q-3 21 24 62q24 38 51 57q32 22 99 28q12 2 26 2h13l11 50
q3 14 8 17q2 0 12 -9q44 -41 138 -114q68 -46 129 -46h45v-92zM483 6q1 32 -50 78q-40 36 -88 76q-2 -16 -2 -47q0 -69 28 -111q25 -38 66 -38q45 -1 46 42z" />
    <glyph glyph-name="logicalnot" unicode="&#xfe5d;" horiz-adv-x="565" 
d="M582 0h-51q-55 0 -114 66q-31 -97 -74 -98q-34 -1 -102 37q-62 34 -90 64q-59 -69 -119 -69h-49v92h51q53 0 105 46q7 7 78 84q42 46 78 46q39 0 82 -46q34 -47 67 -84q40 -46 87 -46h51v-92zM370 66q3 35 -21 77q-27 46 -67 46q-42 0 -88 -59q14 -17 68 -45
q62 -32 93 -32q13 0 15 13z" />
    <glyph glyph-name="uniFE5E" unicode="&#xfe5e;" horiz-adv-x="408" 
d="M408 158q4 -41 -7 -81q-12 -47 -41 -69q-14 -10 -29 -10q-62 0 -178 80q-39 -44 -51 -53q-33 -25 -76 -25h-43v92h58q50 0 93 54q23 33 71 100q39 55 80 55q55 0 92 -58q27 -41 31 -85zM362 100q1 34 -26 75q-31 45 -64 45q-36 0 -84 -71q28 -28 89 -53q40 -17 66 -17
q18 0 19 21z" />
    <glyph glyph-name="registered" unicode="&#x646;" horiz-adv-x="700" 
d="M692 11q7 -39 7 -67q0 -46 -15 -88q-30 -88 -139 -137q-91 -40 -197 -40q-104 0 -170 52q-73 57 -73 157q0 50 27 114q33 76 56 82q8 0 8 -9q0 -8 -3 -14q-35 -70 -35 -131q0 -60 38 -102q51 -56 156 -57q79 0 165 27q107 34 134 91q7 14 7 33q0 31 -17 78
q-14 41 -73 124l32 64q8 14 9 14q4 0 14 -11q52 -81 69 -180zM459 354l-64 -65l-65 65l65 65z" />
    <glyph glyph-name="overscore" unicode="&#xfe5f;" horiz-adv-x="791" 
d="M809 0h-41q-57 0 -76 11q2 -21 5 -64q0 -53 -13 -91q-30 -89 -139 -137q-91 -40 -197 -40q-104 0 -170 52q-73 57 -73 157q0 50 27 114q33 76 56 82q8 0 8 -9q0 -8 -3 -14q-35 -70 -35 -131q0 -60 38 -102q51 -56 156 -57q115 -1 207 43q74 35 92 75q7 16 4 53
q-5 39 -14 58q-12 36 -77 118l36 66q5 10 11 13q4 0 12 -12q60 -93 123 -93h63v-92zM459 354l-64 -65l-65 65l65 65z" />
    <glyph glyph-name="degree" unicode="&#xfe60;" horiz-adv-x="389" 
d="M405 0h-61q-109 0 -145 73q-44 -73 -164 -73h-52v92h71q116 0 126 91q5 35 19 35q12 0 16 -38q9 -88 121 -88h69v-92zM248 408l-63 -64l-66 64l65 65z" />
    <glyph glyph-name="plusminus" unicode="&#xfe61;" horiz-adv-x="206" 
d="M205 158q0 -158 -155 -158h-67v92h54q118 0 118 42q0 30 -53 99l32 78q4 10 8 11q4 0 13 -13q50 -73 50 -151zM199 517l-65 -64l-64 65l64 64z" />
    <glyph glyph-name="twosuperior" unicode="&#x648;" horiz-adv-x="416" 
d="M416 32q0 -97 -43 -187q-32 -67 -79 -116q-39 -39 -49 -39q-56 0 -154 14q-29 4 -30 9q0 5 33 14q94 27 178 98q35 30 64 70q35 49 35 85v26l-104 -5q-109 -5 -109 91q0 61 35 127q39 76 88 76q55 0 91 -60q44 -72 44 -203zM360 98q0 35 -26 69q-29 41 -66 41
q-24 0 -42 -19t-18 -44q0 -54 78 -54q28 0 74 7z" />
    <glyph glyph-name="threesuperior" unicode="&#xfe62;" horiz-adv-x="483" 
d="M501 0h-86q-7 -92 -49 -169q-30 -58 -77 -106q-33 -35 -44 -35q-59 0 -154 14q-29 5 -29 9q0 5 32 14q95 28 178 98q35 30 64 70q35 49 35 85v20h-99q-114 0 -114 92q0 61 35 127q39 76 88 76q68 0 106 -89q19 -45 27 -114h87v-92zM360 94q0 36 -26 72q-28 40 -66 42
q-21 1 -41.5 -20t-20.5 -44q0 -54 92 -54q24 0 62 4z" />
    <glyph glyph-name="acute" unicode="&#x624;" horiz-adv-x="407" 
d="M406 32q0 -179 -121 -303q-39 -39 -48 -39q-57 0 -154 14q-30 4 -31 9q0 5 32 14q99 29 179 98q40 35 69.5 82t29.5 73v26l-103 -5q-109 -5 -109 91q0 61 34 127q39 76 88 76q56 0 91 -60q43 -71 43 -203zM349 98q0 34 -26 69q-29 41 -63 41q-23 0 -43 -20
q-17 -16 -20 -43q0 -54 79 -54q28 0 73 7zM329 458l-10 -39q-89 -18 -177 -49v28q13 8 52 30q-50 30 -51 58q-1 22 34 63t67 41q43 0 61 -40q6 -11 2 -18q-3 -1 -7 -1t-11 1q-18 8 -50 8q-13 0 -30 -8q-20 -9 -20 -20q0 -17 22 -32q23 -21 62 -21q20 0 45 7q8 2 11 0
q2 -1 0 -8z" />
    <glyph glyph-name="mu1" unicode="&#xfe63;" horiz-adv-x="474" 
d="M491 0h-86q-5 -90 -47 -169q-31 -58 -77 -106q-34 -35 -44 -35q-58 0 -154 14q-30 5 -30 9q0 5 31 14q100 30 179 98q40 35 69.5 82t29.5 73v20h-99q-113 0 -113 92q0 61 34 127q39 76 88 76q62 0 98 -74q26 -54 34 -129h87v-92zM349 94q0 37 -26.5 74.5t-62.5 39.5
q-22 1 -45 -21q-19 -20 -19 -43q-1 -54 93 -54q25 0 60 4zM329 458l-10 -39q-89 -18 -177 -49v28q13 8 52 30q-50 30 -51 58q-1 22 34 63t67 41q43 0 61 -40q6 -11 2 -18q-3 -1 -7 -1t-11 1q-18 8 -50 8q-13 0 -30 -8q-20 -9 -20 -20q0 -17 22 -32q23 -21 62 -21q20 0 45 7
q8 2 11 0q2 -1 0 -8z" />
    <glyph glyph-name="paragraph" unicode="&#x647;" horiz-adv-x="405" 
d="M404 167q0 -91 -61 -134q-48 -34 -117 -34q-53 0 -87 30q-34 35 -34 80q0 56 47 137q41 70 90 119q162 -85 162 -198zM360 134q0 35 -53 83q-45 40 -83 58q-62 -81 -62 -125q0 -26 27 -44t56 -18q26 0 65 12q50 14 50 34z" />
    <glyph glyph-name="middot" unicode="&#xfe64;" horiz-adv-x="534" 
d="M550 0h-58q-101 0 -129 127q-54 -54 -65 -54h-69q-38 0 -74 10q-50 15 -50 44q0 69 39 119t168 102l-15 76l54 60q4 -11 54 -258q16 -79 27 -99q20 -35 64 -35h54v-92zM353 162l-26 125q-40 -10 -97 -38q-75 -35 -75 -60q0 -15 41 -23q36 -11 89 -11q31 0 68 7z" />
    <glyph glyph-name="cedilla" unicode="&#x629;" horiz-adv-x="405" 
d="M404 167q0 -91 -61 -134q-48 -34 -117 -34q-53 0 -87 30q-34 35 -34 80q0 56 47 137q41 70 90 119q162 -85 162 -198zM360 134q0 35 -53 83q-45 40 -83 58q-62 -81 -62 -125q0 -26 27 -44t56 -18q26 0 65 12q50 14 50 34zM373 554l-61 -61l-61 61l61 62zM238 554l-61 -61
l-61 61l60 62z" />
    <glyph glyph-name="onesuperior" unicode="&#xfe65;" horiz-adv-x="534" 
d="M550 0h-58q-101 0 -129 127q-54 -54 -65 -54h-69q-38 0 -74 10q-50 15 -50 44q0 69 39 119t168 102l-15 76l54 60q4 -11 54 -258q16 -79 27 -99q20 -35 64 -35h54v-92zM353 162l-26 125q-40 -10 -97 -38q-75 -35 -75 -60q0 -15 41 -23q36 -11 89 -11q31 0 68 7zM458 669
l-61 -62l-61 62l60 61zM322 669l-60 -62l-62 62l62 61z" />
    <glyph glyph-name="ordmasculine" unicode="&#x6c0;" horiz-adv-x="405" 
d="M404 167q0 -91 -61 -134q-48 -34 -117 -34q-53 0 -87 30q-34 35 -34 80q0 56 47 137q41 70 90 119q162 -85 162 -198zM360 134q0 35 -53 83q-45 40 -83 58q-62 -81 -62 -125q0 -26 27 -44t56 -18q26 0 65 12q50 14 50 34zM316 528l-10 -38q-89 -17 -177 -50v30q5 2 51 28
q-47 33 -50 58q0 22 33.5 63t67.5 41q43 0 62 -38q5 -12 2 -17q-5 -5 -18 -1q-16 5 -50 7q-16 0 -33 -9t-17 -20q0 -22 32 -39q28 -14 52 -14q19 0 45 8q5 1 10 1q1 -1 1 -3q0 -3 -1 -7z" />
    <glyph glyph-name="guillemotright" unicode="&#xfe66;" horiz-adv-x="534" 
d="M550 0h-58q-101 0 -129 127q-54 -54 -65 -54h-69q-38 0 -74 10q-50 15 -50 44q0 69 39 119t168 102l-15 76l54 60q4 -11 54 -258q16 -79 27 -99q20 -35 64 -35h54v-92zM353 162l-26 125q-40 -10 -97 -38q-75 -35 -75 -60q0 -15 41 -23q36 -11 89 -11q31 0 68 7zM376 609
l-10 -37q-93 -21 -178 -49v27q13 8 52 30q-47 32 -51 58q0 22 34 62.5t67 40.5q44 0 63 -38q5 -10 1 -18q-4 -4 -16 0q-22 7 -52 7q-14 0 -29 -7q-19 -9 -19 -21q0 -14 21 -31q26 -22 61 -22q11 0 45 7q7 2 12 0q1 -4 -1 -9z" />
    <glyph glyph-name="onequarter" unicode="&#xfe67;" horiz-adv-x="491" 
d="M507 0h-41q-50 0 -89 -14q-51 -20 -61 -60q0 -2 -1 -9v-12q0 -70 93 -129l-36 -83q-114 41 -187 114q-83 83 -93 193h-109v92h105q0 90 48 203q46 107 74 107q19 0 58 -86q41 -89 41 -142q0 -167 -164 -172q11 -47 44 -92q36 -49 89 -76q-1 12 -1 34q0 85 39 141
q58 83 158 83h33v-92zM267 129q0 29 -29 90t-43 63q-17 0 -38 -58q-24 -67 -24 -132q134 0 134 37z" />
    <glyph glyph-name="onehalf" unicode="&#xfe68;" horiz-adv-x="499" 
d="M498 162q0 -41 -30 -93q-35 -58 -82 -58q-40 0 -169 55q-104 -66 -191 -66h-43v92h48q57 0 93 11q-48 33 -48 94q0 78 102 156l-51 25q26 30 67 70q107 -50 188 -114q116 -91 116 -172zM452 112q5 13 5 18q0 32 -50 80q-38 37 -71 54q0 -92 -55 -139q99 -31 127 -31
q32 0 44 18zM289 224q0 31 -12 56q-16 30 -44 30q-32 0 -66 -25q-37 -27 -37 -58q0 -51 85 -77q32 5 53 27t21 47z" />
    <glyph glyph-name="threequarters" unicode="&#x6cc;" horiz-adv-x="828" 
d="M824 289q4 -18 2 -25q-3 -3 -20 7q-33 19 -92 19q-80 0 -145 -64q-55 -55 -55 -88q-1 -39 110 -59q122 -21 141 -56q2 -6 4 -25q0 -64 -42 -131q-26 -42 -119 -79q-114 -47 -257 -47q-101 0 -171 54q-75 58 -75 157q0 111 72 206q8 11 22 17q10 2 10 -8q0 -7 -7 -18
q-45 -83 -47 -160q-1 -50 41 -97q54 -59 162 -59q95 0 203 24q155 35 155 98q0 23 -151 52q-55 10 -75 22q-31 17 -31 59q0 77 81 182q86 111 171 111q91 0 113 -92z" />
    <glyph glyph-name="questiondown" unicode="&#xfe69;" horiz-adv-x="799" 
d="M815 0h-181q-34 0 -64 -10q-42 -14 -42 -41q0 -12 114 -31.5t114 -49.5q0 -92 -54 -139q-90 -77 -321 -77q-276 0 -276 204q0 46 20 102.5t49 94.5q10 14 20 15q8 0 8 -10t-7 -24q-35 -64 -35 -141q0 -80 77 -118q59 -30 148 -30q95 0 175 10q143 17 143 60q0 17 -62 28
q-91 15 -115 22q-63 17 -63 52q0 29 31 72q25 34 54 58q54 45 158 45h109v-92z" />
    <glyph glyph-name="Agrave" unicode="&#x64a;" horiz-adv-x="828" 
d="M824 289q4 -18 2 -25q-3 -3 -20 7q-33 19 -92 19q-80 0 -145 -64q-55 -55 -55 -88q-1 -39 110 -59q122 -21 141 -56q2 -6 4 -25q0 -64 -42 -131q-26 -42 -119 -79q-114 -47 -257 -47q-101 0 -171 54q-75 58 -75 157q0 111 72 206q8 11 22 17q10 2 10 -8q0 -7 -7 -18
q-45 -83 -47 -160q-1 -50 41 -97q54 -59 162 -59q95 0 203 24q155 35 155 98q0 23 -151 52q-55 10 -75 22q-31 17 -31 59q0 77 81 182q86 111 171 111q91 0 113 -92zM548 -391l-61 -61l-62 61l62 62zM413 -391l-61 -61l-63 61l62 62z" />
    <glyph glyph-name="Aacute" unicode="&#xfe6a;" horiz-adv-x="799" 
d="M815 0h-181q-34 0 -64 -10q-42 -14 -42 -41q0 -12 114 -31.5t114 -49.5q0 -92 -54 -139q-90 -77 -321 -77q-276 0 -276 204q0 46 20 102.5t49 94.5q10 14 20 15q8 0 8 -10t-7 -24q-35 -64 -35 -141q0 -80 77 -118q59 -30 148 -30q95 0 175 10q143 17 143 60q0 17 -62 28
q-91 15 -115 22q-63 17 -63 52q0 29 31 72q25 34 54 58q54 45 158 45h109v-92zM551 -459l-60 -61l-62 61l62 62zM416 -459l-61 -61l-61 61l60 62z" />
    <glyph glyph-name="Acircumflex" unicode="&#xfe6b;" horiz-adv-x="389" 
d="M405 0h-61q-109 0 -145 73q-44 -73 -164 -73h-52v92h71q116 0 126 91q5 35 19 35q12 0 16 -38q9 -88 121 -88h69v-92zM281 -174l-62 -61l-61 61l61 63zM144 -174l-60 -61l-61 61l61 63z" />
    <glyph glyph-name="Atilde" unicode="&#xfe6c;" horiz-adv-x="281" 
d="M205 158q0 -158 -155 -158h-67v92h54q118 0 118 42q0 30 -53 99l32 78q4 10 8 11q4 0 13 -13q50 -73 50 -151zM278 -174l-61 -61l-62 61l62 63zM143 -174l-62 -61l-61 61l61 63z" />
    <glyph glyph-name="Adieresis" unicode="&#x626;" horiz-adv-x="828" 
d="M824 289q4 -18 2 -25q-3 -3 -20 7q-33 19 -92 19q-80 0 -145 -64q-55 -55 -55 -88q-1 -39 110 -59q122 -21 141 -56q2 -6 4 -25q0 -64 -42 -131q-26 -42 -119 -79q-114 -47 -257 -47q-101 0 -171 54q-75 58 -75 157q0 111 72 206q8 11 22 17q10 2 10 -8q0 -7 -7 -18
q-45 -83 -47 -160q-1 -50 41 -97q54 -59 162 -59q95 0 203 24q155 35 155 98q0 23 -151 52q-55 10 -75 22q-31 17 -31 59q0 77 81 182q86 111 171 111q91 0 113 -92zM433 359l-8 -40q-86 -16 -179 -49v28q24 13 52 30q-49 31 -49 58q0 23 34 63.5t67 40.5q41 0 60 -40
q7 -10 1 -18q-1 -1 -5 -1t-11 1q-19 8 -52 8q-16 0 -31.5 -9.5t-15.5 -19.5q0 -23 31 -39q27 -13 53 -13q20 0 44 8h11q0 -3 -2 -8z" />
    <glyph glyph-name="Aring" unicode="&#xfe6d;" horiz-adv-x="799" 
d="M815 0h-181q-34 0 -64 -10q-42 -14 -42 -41q0 -12 114 -31.5t114 -49.5q0 -92 -54 -139q-90 -77 -321 -77q-276 0 -276 204q0 46 20 102.5t49 94.5q10 14 20 15q8 0 8 -10t-7 -24q-35 -64 -35 -141q0 -80 77 -118q59 -30 148 -30q95 0 175 10q143 17 143 60q0 17 -62 28
q-91 15 -115 22q-63 17 -63 52q0 29 31 72q25 34 54 58q54 45 158 45h109v-92zM433 271l-8 -40q-86 -16 -179 -49v28q24 13 52 30q-49 31 -49 58q0 23 34 63.5t67 40.5q41 0 60 -40q7 -10 1 -18q-1 -1 -5 -1t-11 1q-19 8 -52 8q-16 0 -31.5 -9.5t-15.5 -19.5q0 -23 31 -39
q27 -13 53 -13q20 0 44 8h11q0 -3 -2 -8z" />
    <glyph glyph-name="AE" unicode="&#xfe6e;" horiz-adv-x="389" 
d="M405 0h-61q-109 0 -145 73q-44 -73 -164 -73h-52v92h71q116 0 126 91q5 35 19 35q12 0 16 -38q9 -88 121 -88h69v-92zM268 381l-8 -38q-85 -17 -179 -49v27q16 11 52 31q-49 31 -49 56q0 30 35.5 68t65.5 38q42 0 60 -40q6 -10 1 -17q-1 -2 -5 -2t-11 2q-16 6 -51 7
q-12 1 -29 -8q-20 -9 -20 -20q0 -15 21 -32q26 -22 61 -22q15 0 47 9h11q0 -5 -2 -10z" />
    <glyph glyph-name="Ccedilla" unicode="&#xfe6f;" horiz-adv-x="206" 
d="M205 158q0 -158 -155 -158h-67v92h54q118 0 118 42q0 30 -53 99l32 78q4 10 8 11q4 0 13 -13q50 -73 50 -151zM199 480l-11 -40q-97 -18 -177 -49v29q13 10 51 29q-50 34 -50 58q0 21 33.5 62.5t67.5 41.5q42 0 62 -38q5 -13 1 -19q-3 -4 -16 0q-24 8 -52 8q-17 0 -33 -9
t-16 -21t20 -31q25 -20 64 -20q23 0 44 7q8 2 12 0v-8z" />
    <glyph glyph-name="Ograve" unicode="&#x64e;" 
d="M195 891l-187 -77v50l187 73v-46z" />
    <glyph glyph-name="Ocircumflex" unicode="&#x650;" 
d="M195 -471l-187 -76v48l187 75v-47z" />
    <glyph glyph-name="Odieresis" unicode="&#x64f;" 
d="M210 953q1 -23 -41 -72q7 -1 26 -9l-21 -36q-28 3 -49 19q-69 -40 -116 -40q-19 0 -35 41q45 1 70 4q36 5 55 20q-20 35 -20 47q0 23 30.5 50t54.5 30q20 0 32.5 -16.5t13.5 -37.5zM166 946q0 18 -20 18q-10 0 -18 -9t-8 -15q0 -22 22 -38q21 11 24 44z" />
    <glyph glyph-name="multiply" unicode="&#xfe73;" 
d="M287 696q1 -23 -41 -72q7 -1 26 -9l-21 -36q-28 3 -49 19q-69 -40 -116 -40q-19 0 -35 41q45 1 70 4q36 5 55 20q-20 35 -20 47q0 23 30.5 50t54.5 30q20 0 32.5 -16.5t13.5 -37.5zM243 689q0 18 -20 18q-10 0 -18 -9t-8 -15q0 -22 22 -38q21 11 24 44z" />
    <glyph glyph-name="Oslash" unicode="&#x64b;" 
d="M195 891l-187 -77v50l187 73v-46zM195 1006l-187 -77v49l187 73v-45z" />
    <glyph glyph-name="Uacute" unicode="&#x64d;" 
d="M195 -584l-187 -77v50l187 73v-46zM195 -470l-187 -76v48l187 75v-47z" />
    <glyph glyph-name="Ucircumflex" unicode="&#xfe75;" 
d="M272 -273l-187 -77v50l187 72v-45zM272 -159l-187 -76v48l187 75v-47z" />
    <glyph glyph-name="Udieresis" unicode="&#x64c;" 
d="M212 953q0 -24 -38 -72q3 -2 25 -9l-22 -36q-24 3 -48 19q-68 -40 -118 -40q-16 0 -35 41q26 0 34 3q13 15 14 31q0 10 -10 14q-17 5 -36 -14l-6 30q20 24 46 25q33 2 38 -42q0 -22 -13 -42q39 4 59 18q-19 32 -19 48q0 29 37 55q32 24 48 24q44 0 44 -53zM169 946
q1 18 -18 18q-12 0 -19.5 -8.5t-7.5 -17.5q0 -17 21 -38q23 17 24 46z" />
    <glyph glyph-name="Thorn" unicode="&#x651;" 
d="M213 894q1 -32 -17 -53q-19 -24 -51 -24q-31 0 -50 32q-29 -34 -67 -34q-24 0 -40 20.5t-16 44.5q0 18 10 39q11 26 26 26q7 0 7 -13q0 -6 -0.5 -13t-2.5 -17q0 -28 28 -28q25 0 36 20q2 9 9 41q3 11 13 11t11 -13q5 -62 36 -63q29 -1 29 30q0 11 -6 30l32 25
q12 -20 13 -61z" />
    <glyph glyph-name="igrave" unicode="&#x6e4;" 
d="M220 885q-52 -44 -126 -44q-10 0 -42 3q-12 2 -26 3q-9 0 -20.5 -17t-20.5 -17q-10 0 -10 14t14.5 43t25.5 30q15 0 45 -5t47 -5q66 0 101 9q14 5 23 5q6 0 6 -2q0 -3 -17 -17z" />
    <glyph glyph-name="icircumflex" unicode="&#x652;" 
d="M172 893q1 -76 -78 -76q-68 0 -68 57q0 24 20 71q21 51 41 53q41 0 64 -33q20 -29 21 -72zM151 887q0 50 -64 51q-7 1 -18 -22q-8 -17 -8 -29q0 -10 13 -17q8 -6 25 -6q52 0 52 23z" />
    <glyph glyph-name="eth" unicode="&#x674;" 
d="M202 903l-9 -38q-86 -16 -178 -50v29q14 8 52 28q-50 35 -50 59q-1 21 33 61q36 44 68 44q41 0 61 -39q7 -13 1 -18q-3 -6 -17 -1q-21 8 -51 9q-12 0 -33 -11q-16 -9 -16 -19q0 -22 32 -38q27 -15 51 -15q20 0 47 8q3 1 11 1q0 -4 -2 -10z" />
    <glyph glyph-name="ograve" unicode="&#x670;" 
d="M117 888q0 -71 -26 -71q0 31 -12 99q-6 49 -9 50q0 14 42 34q5 -16 5 -112z" />
    <glyph glyph-name="ocircumflex" unicode="&#xf4;" 
d="M70 798l53 48l19 20q-34 8 -64 8q-37 0 -52 -18l-13 -43q-4 10 -4 21q0 50 57 67q16 5 36 6q27 1 59 -14q59 56 113 56q41 0 69 -33q23 -26 23 -56q0 -8 -4 -13t-22.5 -9.5t-44.5 -3.5l-44 1q-22 1 -46 7l-44 11zM187 878q7 -2 34 -9l29 -4l25 -1h8l14 1q12 2 17 5t7 12
q0 11 -11.5 23.5t-33.5 12.5q-23 0 -59 -20z" />
    <glyph glyph-name="otilde" unicode="&#xf5;" 
d="M147 541l53 48l19 20q-34 8 -64 8q-37 0 -52 -18l-13 -43q-4 10 -4 21q0 50 57 67q16 5 36 6q27 1 59 -14q59 56 113 56q41 0 69 -33q23 -26 23 -56q0 -8 -4 -13t-22.5 -9.5t-44.5 -3.5l-44 1q-22 1 -46 7l-44 11zM264 621q7 -2 34 -9l29 -4l25 -1h8l14 1q12 2 17 5t7 12
q0 11 -11.5 23.5t-33.5 12.5q-23 0 -59 -20z" />
    <glyph glyph-name="ugrave" unicode="&#x649;" horiz-adv-x="828" 
d="M824 289q4 -18 2 -25q-3 -3 -20 7q-33 19 -92 19q-80 0 -145 -64q-55 -55 -55 -88q-1 -39 110 -59q122 -21 141 -56q2 -6 4 -25q0 -64 -42 -131q-26 -42 -119 -79q-114 -47 -257 -47q-101 0 -171 54q-75 58 -75 157q0 111 72 206q8 11 22 17q10 2 10 -8q0 -7 -7 -18
q-45 -83 -47 -160q-1 -50 41 -97q54 -59 162 -59q95 0 203 24q155 35 155 98q0 23 -151 52q-55 10 -75 22q-31 17 -31 59q0 77 81 182q86 111 171 111q91 0 113 -92z" />
    <glyph glyph-name="uacute" unicode="0" horiz-adv-x="540" 
d="M354 276l-95 -99l-101 99l101 97z" />
    <glyph glyph-name="ucircumflex" unicode="1" horiz-adv-x="540" 
d="M358 139q0 -155 -36 -157q-16 0 -16.5 32.5t-2.5 96.5q-6 86 -27 164q-45 167 -122 279l57 91q66 -95 108 -243q39 -140 39 -263z" />
    <glyph glyph-name="udieresis" unicode="2" horiz-adv-x="540" 
d="M452 623q0 -83 -46.5 -134.5t-128.5 -52.5q-19 -1 -56 5q28 -52 52 -151q27 -111 27 -190q0 -118 -32 -118q-12 0 -16 37q-11 107 -13 110q-12 91 -45 181q-48 128 -127 243l53 88q39 -56 60 -74q42 -36 91 -36q104 0 145 94q10 24 23 25q13 0 13 -27z" />
    <glyph glyph-name="yacute" unicode="3" horiz-adv-x="540" 
d="M492 618q0 -169 -106 -170q-21 -1 -46 16t-30 29q-10 -25 -34.5 -40.5t-57.5 -15.5q-13 0 -30 3q25 -44 47 -130q27 -104 28 -190q1 -78 -1 -94q-6 -45 -27 -45q-12 0 -22 81q-32 284 -182 485l53 93q25 -36 52 -76q33 -34 77 -34q39 0 58 32q10 19 22 62q6 23 18 23
q14 0 18 -32q9 -75 65 -75q33 0 47 29q5 10 16 53q6 26 22 26q13 0 13 -30z" />
    <glyph glyph-name="thorn" unicode="4" horiz-adv-x="540" 
d="M479 473q0 -39 -55 -68q-46 -24 -88 -24q-67 0 -108 26q29 -45 47 -139q15 -81 15 -148q0 -75 -1 -94q-2 -45 -25 -45q-11 0 -20 81q-33 289 -185 485l53 93q34 -48 90 -116q2 62 41.5 102t101.5 41q29 0 60 -16.5t42 -41.5q3 -5 -2 -9t-14 -3q-28 9 -78 9q-48 0 -69 -27
q-15 -20 -19 -51q0 -8 2 -11q6 -26 37 -42q25 -12 56 -13q52 -2 87 19q12 7 21 7q11 0 11 -15z" />
    <glyph glyph-name="ydieresis" unicode="5" horiz-adv-x="540" 
d="M479 141q0 -49 -30 -99q-32 -54 -86 -54q-64 0 -93 56q-35 -64 -106 -66q-50 -1 -80 43q-27 38 -28 90q-1 143 156 419l-21 26l44 93q83 -94 156 -216q88 -148 88 -236v-56zM437 146q0 69 -90 209q-59 91 -110 150q-126 -246 -126 -343q0 -34 15 -58q17 -28 49 -28
q74 0 81 70q3 21 16 21t17 -21q13 -67 81 -67q29 0 49 21q18 18 18 46z" />
    <glyph glyph-name="Amacron" unicode="6" horiz-adv-x="498" 
d="M463 455l-38 -110q-87 -26 -181 -108q-104 -92 -169 -238q-7 -17 -18 -17q-12 0 -10 20q10 83 55 171t99 137q-56 5 -94 38t-39 89q-1 50 65 127q72 84 139 84q36 0 76 -30q36 -27 39 -53q1 -7 -2 -14q-6 -3 -14 -1q-61 14 -101 14q-54 0 -93 -32q-35 -28 -35 -64
q-1 -72 122 -72q35 0 90 26q29 14 87 43q13 7 20 3q4 -2 2 -13z" />
    <glyph glyph-name="amacron" unicode="7" horiz-adv-x="540" 
d="M492 553q-95 -125 -144 -278q-24 -73 -45 -212q-13 -82 -31 -82q-14 0 -27 80q-19 123 -50 216q-62 182 -153 269l32 89q5 15 7 15q3 -1 13 -12q67 -78 125 -236q49 -135 54 -218q11 101 48 215q51 158 128 246q4 5 10 11q2 0 6 -15z" />
    <glyph glyph-name="Abreve" unicode="8" horiz-adv-x="540" 
d="M42 81q32 43 50 73q55 87 93 207q25 78 46 210q14 84 31 84q14 0 27 -81q22 -130 51 -216q58 -177 152 -267l-31 -91q-5 -14 -8 -15q-4 2 -13 12q-70 80 -125 237q-50 142 -53 216q-12 -99 -49 -215q-49 -156 -127 -246q-5 -4 -11 -9q-4 0 -8 12z" />
    <glyph glyph-name="abreve" unicode="9" horiz-adv-x="540" 
d="M453 91l-22 -100q0 -11 -4 -11q-3 0 -14 12q-57 61 -75 136q-16 65 -18 217q-41 -13 -103 -14q-123 -1 -123 106q0 77 36 139q42 73 100 73q141 1 141 -235.5t82 -322.5zM310 438q-2 41 -26 75q-27 37 -66 37q-28 0 -46 -19q-27 -19 -27 -54q0 -52 89 -53q37 -1 76 14z
" />
    <glyph glyph-name="Aogonek" unicode="&#x200c;" 
d="M19 692v-840h-38v840h38z" />
    <glyph glyph-name="aogonek" unicode="&#x200d;" 
d="M19 -148h-38v746l-72 -73l-27 27l92 90l-92 91l27 26l91 -92l91 92l27 -26l-92 -91l92 -90l-27 -27l-72 73v-746z" />
    <glyph glyph-name="Cacute" unicode="&#x200e;" 
d="M231 643l-117 -114l-26 26l74 70h-143v-773h-38v811h181l-74 70l26 26z" />
    <glyph glyph-name="cacute" unicode="&#x200f;" 
d="M19 -148h-38v773h-143l73 -70l-26 -26l-116 114l116 116l26 -26l-73 -70h181v-811z" />
    <glyph glyph-name="Ccircumflex" unicode="&#x61f;" horiz-adv-x="420" 
d="M219 156l110 -76l-66 -94l-108 76zM347 641v-117q-33 22 -68 35t-65 13q-31 0 -53 -13q-26 -15 -26 -44q0 -27 42 -55l119 -82q1 0 3 -1.5t4 -3.5q19 -12 21 -29q-1 -7 -2 -11t-4 -12l-48 -121h-34v78q0 17 -5 25.5t-18 19.5l-72 48q-67 44 -68 117q-1 72 52 121
q49 46 133 48q50 0 89 -16z" />
    <glyph glyph-name="ccircumflex" unicode="!" horiz-adv-x="325" 
d="M140 156l110 -76l-67 -94l-109 76zM167 657q25 -95 37 -166q13 -79 13 -133q0 -57 -25 -158h-33v22q0 142 -76 319z" />
    <glyph glyph-name="Cdot" unicode="." horiz-adv-x="385" 
d="M251 70q0 -10 -26 -34.5t-32 -24.5q-10 0 -34.5 24t-24.5 34t25.5 35t35.5 25q9 0 32.5 -25t23.5 -34z" />
    <glyph glyph-name="cdot" unicode="&#x60c;" horiz-adv-x="385" 
d="M257 66q0 -15 -24.5 -37.5t-33.5 -22.5q-29 0 -51 35q-20 32 -20 62q-1 31 35 80t65 50q6 1 10 -7q0 -6 -5 -10q-41 -46 -42 -66q-1 -29 30 -42q14 -6 24.5 -18t11.5 -24z" />
    <glyph glyph-name="Ccaron" unicode="&#x66b;" horiz-adv-x="385" 
d="M257 134q1 -30 -35 -79t-65 -51q-6 0 -10 8q0 5 5 10q41 46 42 66q1 28 -30 42q-14 6 -24 16q-11 14 -12 26q0 14 24.5 37t33.5 23q29 0 51 -36q20 -31 20 -62z" />
    <glyph glyph-name="ccaron" unicode=":" horiz-adv-x="385" 
d="M251 284q0 -13 -27 -34q-19 -26 -31 -26t-35.5 24t-23.5 36q0 9 25.5 34t35.5 25q8 0 32 -25t24 -34zM251 70q0 -10 -26 -34.5t-32 -24.5q-10 0 -34.5 24t-24.5 34t25.5 35t35.5 25q9 0 32.5 -25t23.5 -34z" />
    <glyph glyph-name="Dcaron" unicode="&#x61b;" horiz-adv-x="385" 
d="M259 259q0 -15 -23.5 -38.5t-37.5 -23.5q-15 0 -38 20q-32 27 -33 79q-1 31 37.5 80t62.5 49q9 0 11 -6q1 -4 -6 -13q-41 -45 -42 -63q-1 -36 30 -44q39 -10 39 -40zM251 68q0 -9 -24 -35q-28 -24 -34 -24q-11 0 -34.5 23.5t-23.5 34.5q0 10 25 35t35 25q7 0 31.5 -24
t24.5 -35z" />
    <glyph glyph-name="dcaron" unicode="/" horiz-adv-x="350" 
d="M330 564l-258 -590h-52l257 590h53z" />
    <glyph glyph-name="Dslash" unicode="+" horiz-adv-x="350" 
d="M201 75h-53v129h-125v54h125v129h53v-129h126v-54h-126v-129z" />
    <glyph glyph-name="dcroat" unicode="-" horiz-adv-x="350" 
d="M311 220h-272v51h272v-51z" />
    <glyph glyph-name="dcroat" unicode="&#x2010;" horiz-adv-x="350" 
d="M311 220h-272v51h272v-51z" />
    <glyph glyph-name="Emacron" unicode="&#xd7;" horiz-adv-x="350" 
d="M69 89l-37 37l106 106l-106 105l37 37l106 -105l106 105l37 -37l-106 -105l106 -106l-37 -37l-106 106z" />
    <glyph glyph-name="emacron" unicode="&#xf7;" horiz-adv-x="350" 
d="M141 165h68v-67h-68v67zM141 364h68v-67h-68v67zM23 258h304v-54h-304v54z" />
    <glyph glyph-name="Ebreve" unicode="&#x66a;" horiz-adv-x="350" 
d="M130 559q0 -23 -16 -40t-40 -17t-40 17t-16 40q0 24 16 39.5t40 15.5t40 -15.5t16 -39.5zM350 614l-303 -603h-47l301 603h49zM330 60q0 -24 -16.5 -40t-40.5 -16q-23 0 -39 16t-16 40q0 23 16 40t39 17q24 0 40.5 -17t16.5 -40z" />
    <glyph glyph-name="ebreve" unicode="*" horiz-adv-x="450" 
d="M352 662q-36 -28 -87 -41q-3 -1 -4 0q2 -2 2 3q14 58 40 86q9 9 23 9q34 0 34 -34q0 -14 -8 -23zM260 724q0 -7 -7 -30q-9 -32 -25 -59q-6 -3 -2 -3l-2 3q-32 53 -32 88q0 33 34 33q13 0 23.5 -9.5t10.5 -22.5zM404 578q0 -14 -10.5 -24.5t-23.5 -10.5q-34 0 -91 34
q-1 0 -1 1l1 1q53 33 91 33q34 0 34 -34zM188 617h-2q-59 14 -86 40q-11 10 -11 24q0 35 36 35q14 0 22 -7q28 -37 41 -88v-4zM262 578q0 -15 -10.5 -25.5t-25.5 -10.5q-36 0 -36 36q0 35 36 35t36 -35zM351 497q10 -9 10 -23q0 -35 -34 -35q-21 0 -41 36q-8 15 -23 62v1h2
q60 -15 86 -41zM260 433q0 -33 -34 -33q-13 0 -23 9.5t-10 23.5q0 38 33 92v0h2q32 -54 32 -92zM171 579q-1 -1 -2 -1q-55 -34 -89 -34t-34 35q0 12 10 22.5t22 10.5q27 0 92 -33h1zM188 537q-14 -57 -43 -86q-10 -10 -21 -10q-33 0 -33 34q0 14 7 24q37 28 87 41h3v-3z" />
    <glyph glyph-name="ebreve" unicode="&#x66d;" horiz-adv-x="450" 
d="M352 662q-36 -28 -87 -41q-3 -1 -4 0q2 -2 2 3q14 58 40 86q9 9 23 9q34 0 34 -34q0 -14 -8 -23zM260 724q0 -7 -7 -30q-9 -32 -25 -59q-6 -3 -2 -3l-2 3q-32 53 -32 88q0 33 34 33q13 0 23.5 -9.5t10.5 -22.5zM404 578q0 -14 -10.5 -24.5t-23.5 -10.5q-34 0 -91 34
q-1 0 -1 1l1 1q53 33 91 33q34 0 34 -34zM188 617h-2q-59 14 -86 40q-11 10 -11 24q0 35 36 35q14 0 22 -7q28 -37 41 -88v-4zM262 578q0 -15 -10.5 -25.5t-25.5 -10.5q-36 0 -36 36q0 35 36 35t36 -35zM351 497q10 -9 10 -23q0 -35 -34 -35q-21 0 -41 36q-8 15 -23 62v1h2
q60 -15 86 -41zM260 433q0 -33 -34 -33q-13 0 -23 9.5t-10 23.5q0 38 33 92v0h2q32 -54 32 -92zM171 579q-1 -1 -2 -1q-55 -34 -89 -34t-34 35q0 12 10 22.5t22 10.5q27 0 92 -33h1zM188 537q-14 -57 -43 -86q-10 -10 -21 -10q-33 0 -33 34q0 14 7 24q37 28 87 41h3v-3z" />
    <glyph glyph-name="Edot" unicode="=" horiz-adv-x="350" 
d="M326 318h-302v45h302v-45zM326 206h-302v45h302v-45z" />
    <glyph glyph-name="edot" unicode="&#x3c;" horiz-adv-x="500" 
d="M41 185v73l418 176v-77l-331 -136l331 -137v-77z" />
    <glyph glyph-name="Eogonek" unicode="&#x3e;" horiz-adv-x="500" 
d="M459 185l-418 -178v77l331 137l-331 136v77l418 -176v-73z" />
    <glyph glyph-name="eogonek" unicode="(" horiz-adv-x="350" 
d="M224 -185q-153 192 -153 413q0 209 153 413h55q-52 -89 -69 -128q-59 -136 -59 -285q0 -207 128 -413h-55z" />
    <glyph glyph-name="Ecaron" unicode=")" horiz-adv-x="350" 
d="M126 -185h-55q128 206 128 413q0 149 -59 284q-17 40 -69 129h55q153 -204 153 -413q0 -219 -153 -413z" />
    <glyph glyph-name="glyph243" unicode="[" horiz-adv-x="290" 
d="M59 -185v805h171v-64h-94v-676h94v-65h-171z" />
    <glyph glyph-name="glyph244" unicode="]" horiz-adv-x="290" 
d="M230 -185h-171v65h93v676h-93v64h171v-805z" />
    <glyph glyph-name="ecaron" unicode="{" horiz-adv-x="350" 
d="M51 263q67 2 81 64q7 30 8 102q-1 32 2 94q10 94 80 113q16 5 53 5h24v-68h-13q-48 0 -61 -18.5t-13 -69.5q0 -113 -5 -142q-13 -81 -85 -115q57 -24 77 -80q13 -38 13 -114q0 -84 2 -99q4 -33 22 -44q14 -9 50 -9h13v-67h-24q-42 0 -61 7q-58 21 -69 88q-2 70 -4 141
q-3 97 -36 124q-21 17 -54 18v70z" />
    <glyph glyph-name="Gcircumflex" unicode="}" horiz-adv-x="350" 
d="M299 263v-70q-67 -2 -81 -65q-8 -33 -8 -97q0 -77 -2 -98q-10 -93 -80 -113q-17 -5 -53 -5h-24v67h13q48 0 62 21q12 16 12 68q0 108 4 136q12 90 86 121q-58 27 -77 80q-13 36 -13 115.5t-2 98.5q-4 32 -22 43q-14 8 -50 8h-13v68h24q41 0 61 -7q58 -21 69 -88
q5 -32 4 -110q0 -71 9 -108q14 -63 81 -65z" />
    <glyph glyph-name="gcircumflex" unicode="&#xab;" horiz-adv-x="393" 
d="M341 -14q4 -6 0 -10q-4 -6 -10 -1q-43 17 -83 77t-40 128q0 69 40 130q34 54 81 74q5 2 10 -3q4 -4 0 -10q-19 -30 -46 -78q-22 -53 -22 -110q0 -61 25 -117q8 -24 45 -80zM185 -14q4 -6 0 -10q-2 -5 -6 -5q-2 1 -3 1q-46 20 -85 80.5t-39 127.5q0 68 40 129q38 56 82 73
q5 3 8 -1t0 -10q-66 -103 -66 -189q0 -62 24 -116q12 -28 45 -80z" />
    <glyph glyph-name="Gbreve" unicode="&#xbb;" horiz-adv-x="402" 
d="M345 180q0 -65 -41 -129q-39 -60 -83 -79q-5 -2 -9 4q-3 4 0 10q20 33 47 80q24 56 24 116q0 83 -67 189q-2 1 -2 4q0 12 10 7q42 -15 81 -73q40 -61 40 -129zM189 180q1 -63 -40 -129q-36 -57 -83 -76q-5 -4 -10 1q-4 4 0 10q36 57 46 80q23 53 23 117q0 88 -66 188
q-4 6 0 10q4 5 9 3q48 -22 82 -74q38 -61 39 -130z" />
    <glyph glyph-name="gbreve" unicode="&#x2039;" horiz-adv-x="350" 
d="M161 226l114 -195h-64l-136 195l136 197h64z" />
    <glyph glyph-name="Gdot" unicode="&#x203a;" horiz-adv-x="350" 
d="M192 228l-114 195h64l130 -193l-130 -199h-64z" />
    <glyph glyph-name="gdot" unicode="&#x201c;" horiz-adv-x="350" 
d="M146 524v-90h-83v71q0 58 14 84q18 34 57 52l19 -30q-45 -19 -47 -87h40zM280 524v-90h-83v71q0 58 13 84q19 34 58 52l19 -30q-45 -19 -48 -87h41z" />
    <glyph glyph-name="Gcedilla" unicode="&#x201d;" horiz-adv-x="350" 
d="M70 547v89h83v-71q0 -57 -13 -82q-18 -35 -58 -53l-19 31q45 18 48 86h-41zM204 547v89h83v-71q0 -57 -14 -82q-18 -35 -57 -53l-19 31q45 18 47 86h-40z" />
    <glyph glyph-name="gcedilla" unicode="&#x2018;" horiz-adv-x="350" 
d="M213 524v-90h-83v71q0 58 14 84q18 34 57 52l19 -30q-45 -19 -47 -87h40z" />
    <glyph glyph-name="Hcircumflex" unicode="&#x2019;" horiz-adv-x="350" 
d="M137 547v89h83v-71q0 -57 -13 -82q-19 -35 -58 -53l-19 31q45 18 47 86h-40z" />
    <glyph glyph-name="hcircumflex" unicode="&#x2022;" horiz-adv-x="300" 
d="M0 150q0 62 44 106t106 44t106 -44t44 -106t-44 -106t-106 -44t-106 44t-44 106z" />
  </font>
</defs>
</svg>
